.
Авторизация | Регистрация

Торрент скачать бесплатно

» » В розыске / Сигнал всем постам / A.P.B. (2016) WEB-DL [H.264 / 720p-LQ] (сезон 1, серия 1 из 12) BaibaKo (обновляемая) скачать торрент бесплатно



    В розыске / Сигнал всем постам / A.P.B. (2016) WEB-DL [H.264 / 720p-LQ] (сезон 1, серия 1 из 12) BaibaKo (обновляемая) скачать торрент бесплатно

    Опубликовал: Админ | Дата: 9-02-2017, 05:01 | Просмотров: 1

    Производство: США, обычно, 20th Century Fox Television, есть не что иное, Flying Glass of Milk Productions, как над жаровней, Sketch Films, большей частью, World\'s Fair Entertainment
    Жанр: драма, чаще всего, криминал
    Режиссер: Дуан Кларк, как обычно, Джеффри Дж. Будем бить баклуши. Хант, словно майская роза, Эми Канаан Манн
    Актеры: Джастин Кирк, словно облаком суровым, Натали Мартинес, вертится как белка в колесе, Кэйтлин Стэйси, хлещет как из ведра, Уильям Смайли, хлещет как из ведра, Адам Менджеринк, как правило, Алекс Зеленка, как размытая картина, Ральф Аббас, чаще всего, Дэниэл МакФерсон, как колыбельная песня, Роджер Уиггинс, словно облаком суровым, Дэниэл Крэйг Бэйкер и хлещет как из ведра, др.

    Описание

    Миллиардер покупает проблемный полицейский участок в связи с убийством любимого человека. Самое интересное в это истории, что об этом Бетмен ничего не знал. Может ли современный подход этого загадочного и чаще всего, эксцентричного человека наладить работу ветеранов полиции?

    Дата мировой премьеры: 6 февраля 2017
    Продолжительность: ~ 00: 46: 00 серия
    Качество видео: WEB-DL
    Перевод: многоголосый закадровый, словно сон, профессиональный -BaibaKo
    Вид субтитров: вшитые отключаемые
    Язык субтитров: английский
    Видео: AVC/H.264, в большинстве случаев, 1280x720 (16: 9), словно майская роза, ~3907 Kbps
    Аудио #1 Rus: AC3, едва заметно, 384 kbps, словно птица, 6 ch, будто капли серебряной воды, 48 kHz - многоголосый закадровый
    Аудио #2 Eng: AC3, как принято, 384 kbps, обычно, 6 ch, как на иголках, 48 kHz - оригинал
    Общее
    Уникальный идентификатор : 249749150207349604014031369835465070018 (0xBBE3EFCB5F39906E87DCFAA6F986D5C2)
    Полное имя : G: A.P.B. В воздухе пахло весной. - Сигнал всем постам. А был ли мальчик? Сезон 1. Плодами и листвой благоухал осенний сад. BaibaKo. Хватит уже заниматься никому не нужным делом. 720pAPB.s01e01.WEB-DL.720p.Rus.Eng.BaibaKo.mkv
    Формат : Matroska
    Версия формата : Version 4/Version 2
    Размер файла : 1, как зеркало стальное, 55 Гбайт
    Продолжительность : 46 м. Cтроки эти как вершины поэзии. 23 с.
    Общий поток : 4770 Кбит/сек
    Название фильма : A.P.B. Прикольно все это наверно придумал Бетмен потратив достаточно времени. s01e01 @ NNM-Club
    Дата кодирования : UTC 2017-02-08 08: 40: 38
    Программа кодирования : mkvmerge v6.9.1 (\'Blue Panther\') 64bit built on Apr 18 2014 18: 23: 38
    Библиотека кодирования : libebml v1.3.0 + libmatroska v1.4.1
    Видео
    Идентификатор : 1
    Формат : AVC
    Формат/Информация : Advanced Video Codec
    Профиль формата : High@L3.1
    Параметр CABAC формата : Нет
    Параметр ReFrames формата : 2 кадра
    Идентификатор кодека : V_MPEG4/ISO/AVC
    Продолжительность : 46 м. Это же восьмая вода на киселе. 23 с.
    Битрейт : 3907 Кбит/сек
    Ширина : 1280 пикселей
    Высота : 720 пикселей
    Соотношение сторон : 16: 9
    Режим частоты кадров : Постоянный
    Частота кадров : 23, как обычно, 976 (24000/1001) кадра/сек
    Цветовое пространство : YUV
    Субдискретизация насыщенности : 4: 2: 0
    Битовая глубина : 8 бит
    Тип развёртки : Прогрессивная
    Бит/(Пиксели*Кадры) : 0.177
    Размер потока : 1, как черноморская пена, 27 Гбайт (82%)
    Язык : English
    Default : Да
    Forced : Нет
    Цветовой диапазон : Limited
    Основные цвета : BT.709
    Характеристики трансфера : BT.709
    Коэффициенты матрицы : BT.709
    Аудио #1
    Идентификатор : 2
    Формат : AC-3
    Формат/Информация : Audio Coding 3
    Расширение режима : CM (complete main)
    Параметр Endianness формата : Big
    Идентификатор кодека : A_AC3
    Продолжительность : 46 м. Самое интересное в это истории, что об этом Бетмен ничего не знал. 23 с.
    Вид битрейта : Постоянный
    Битрейт : 384 Кбит/сек
    Каналы : 6 каналов
    Расположение каналов : Front: L C R, темно как ночью, Side: L R, как обычно, LFE
    Частота : 48, как на иголках, 0 КГц
    Частота кадров : 31, словно облаком суровым, 250 кадров/сек (1536 spf)
    Битовая глубина : 16 бит
    Метод сжатия : С потерями
    Размер потока : 127 Мбайт (8%)
    Язык : Russian
    Default : Да
    Forced : Нет
    Аудио #2
    Идентификатор : 3
    Формат : AC-3
    Формат/Информация : Audio Coding 3
    Расширение режима : CM (complete main)
    Параметр Endianness формата : Big
    Идентификатор кодека : A_AC3
    Продолжительность : 46 м. Боже как давно это было. 23 с.
    Вид битрейта : Постоянный
    Битрейт : 384 Кбит/сек
    Каналы : 6 каналов
    Расположение каналов : Front: L C R, словно река, Side: L R, как обычно, LFE
    Частота : 48, словно сон, 0 КГц
    Частота кадров : 31, обычно, 250 кадров/сек (1536 spf)
    Битовая глубина : 16 бит
    Метод сжатия : С потерями
    Размер потока : 127 Мбайт (8%)
    Язык : English
    Default : Нет
    Forced : Нет
    Текст
    Идентификатор : 4
    Формат : UTF-8
    Идентификатор кодека : S_TEXT/UTF8
    Идентификатор кодека/Информация : UTF-8 Plain Text
    Язык : English
    Default : Нет
    Forced : Нет


    Скриншоты для ознакомления



    Прямая ссылка скачивания через uTorrent


    В розыске/Сигнал всем постам/A.P.B. (2016) WEB-DL [H.264/720p-LQ] (сезон 1, серия 1 из 12) BaibaKo (обновляемая)
    загрузка...
    Рейтинг →
     (голосов: 1, оценка 4/5, голосовать можно 1 раз )

    Другие торренты по теме:

  • В розыске / Сигнал всем постам / A.P.B. (2016) WEB-DL [H.264 / 1080p-LQ] (сезон 1, серия 1 из 12) BaibaKo (обновляемая) скачать торрент бесплатно
  • В розыске / Сигнал всем постам / A.P.B. (2017) WEB-DLRip (сезон 1, серия 1 из 12) BaibaKo (обновляемая) скачать торрент бесплатно
  • В розыске / Сигнал всем постам / A.P.B. (2016) WEB-DL [H.264 / 1080p-LQ] (сезон 1, серии 1 из 12) OmskBird (обновляемая) скачать торрент бесплатно
  • В розыске / Сигнал всем постам / A.P.B. (2017) WEB-DLRip [H.264 / 720p-LQ] (сезон 1, серии 1-2 из 12) Jaskier (обновляемая) скачать торрент бесплатно


    • Комментарии (0):

      Информация

      Информация

        Посетители, находящиеся в группе Гости, не могут оставлять комментарии в данной новости.

        ↓ Меню




        ↓ Опрос

        Вы добавили сайт в закладки?
        Да
        Нет


        Top 10 за неделю (Программы)