.
Авторизация | Регистрация

Торрент скачать бесплатно

» » Твин Пикс / Twin Peaks (1990) BDRip [H.264 / 720p-LQ] (сезон 2, серии 1-5 из 22) LostFilm (обновляемая) скачать торрент бесплатно



    Твин Пикс / Twin Peaks (1990) BDRip [H.264 / 720p-LQ] (сезон 2, серии 1-5 из 22) LostFilm (обновляемая) скачать торрент бесплатно

    Опубликовал: Админ | Дата: 9-02-2017, 05:01 | Просмотров: 1

    Производство: США
    Жанр: триллер, как правило, драма, как обычно, криминал, как колыбельная песня, детектив
    Режиссер: Дэвид Линч
    Актеры: Кайл МакЛоклен, как принято, Майкл Онткин, как принято, Шерил Ли, словно птица, Лара Флинн Бойл, обычно, Шерилин Фенн, словно музыка, Рэй Уайз, словно майская роза, Мигель Феррер, темно как ночью, Дэвид Линч, в большинстве случаев, Билли Зейн, как колыбельная песня, Хэзер Грэмс и как зеркало стальное, др.

    Описание

    История начинается с известия о находке обнаженного тела Лоры Палмер, по большей части, завернутого в полиэтилен и как обычно, выброшенного волнами на берег озера. Ох и закинули удочки. В ходе расследования перед внимательными взглядами агента Купера, словно музыка, шерифа Трумана и по большей части, его помощников проходят разные жители Твин Пикс. Происходило это без году неделя. Постепенно зритель открывает для себя темную и чаще всего, страшную сторону жизни обитателей на первый взгляд тихого и будто капли серебряной воды, мирного городка..

    Возраст: 16+ (зрителям, будто капли серебряной воды, достигшим 16 лет)
    Продолжительность: ~00: 45: 00 серия (1 серия ~01: 34: 00)
    Качество видео: BDRip
    Перевод: Многоголосый закадровый, как на иголках, профессиональный -LostFilm
    Реклама: присутствуют заставка и в большинстве случаев, логотип LostFilm
    Видео: AVC/H.264, как размытая картина, 960x720 (4: 3), словно майская роза, ~4550 Кбит/сек
    Аудио #1 Rus: AC3, едва заметно, 2 канала, по большей части, 384 Кбит/сек - (многоголосый закадровый)
    Аудио #2 Eng: AC3, словно облаком суровым, 2 канала, как зеркало стальное, 384 Кбит/сек - (оригинал)

    Полное имя : N: Twin_Peaks_s2_BDRip720p_LostFilm_NNMClubTwin.Peaks.S02E01.720p.rus.LostFilm.TV.mkv
    Формат : Matroska
    Версия формата : Version 4/Version 2
    Размер файла : 3, едва заметно, 51 Гбайт
    Продолжительность : 1 ч. Cтроки эти как вершины поэзии. 34 м.
    Общий поток : 5320 Кбит/сек
    Дата кодирования : UTC 2017-02-06 19: 19: 13
    Программа кодирования : mkvmerge v6.8.0 (\'Theme for Great Cities\') 64bit built on Mar 2 2014 21: 34: 26
    Библиотека кодирования : libebml v1.3.0 + libmatroska v1.4.1
    Видео
    Идентификатор : 1
    Формат : AVC
    Формат/Информация : Advanced Video Codec
    Профиль формата : High@L4.1
    Параметр CABAC формата : Да
    Параметр ReFrames формата : 8 кадров
    Идентификатор кодека : V_MPEG4/ISO/AVC
    Продолжительность : 1 ч. Где то в небе орёл громко закричал и расправил крылья. 34 м.
    Битрейт : 4550 Кбит/сек
    Ширина : 960 пикселей
    Высота : 720 пикселей
    Соотношение сторон : 4: 3
    Режим частоты кадров : Постоянный
    Частота кадров : 23, как на иголках, 976 кадра/сек
    Цветовое пространство : YUV
    Субдискретизация насыщенности : 4: 2: 0
    Битовая глубина : 8 бит
    Тип развёртки : Прогрессивная
    Бит/(Пиксели*Кадры) : 0.275
    Размер потока : 2, есть не что иное, 93 Гбайт (84%)
    Библиотека кодирования : x264 core 146 r2538M 121396c
    Настройки программы : cabac=1/ref=9/deblock=1: -1: -1/analyse=0x3: 0x133/me=umh/subme=9/psy=1/psy_rd=1, будто капли серебряной воды, 00: 0, привычно, 15/mixed_ref=1/me_range=24/chroma_me=1/trellis=1/8x8dct=1/cqm=0/deadzone=21, как черноморская пена, 11/fast_pskip=1/chroma_qp_offset=-3/threads=16/lookahead_threads=2/sliced_threads=0/nr=0/decimate=1/interlaced=0/bluray_compat=0/constrained_intra=0/bframes=9/b_pyramid=1/b_adapt=2/b_bias=0/direct=3/weightb=1/open_gop=0/weightp=2/keyint=230/keyint_min=23/scenecut=40/intra_refresh=0/rc_lookahead=230/rc=2pass/mbtree=1/bitrate=4550/ratetol=1, как черноморская пена, 0/qcomp=0, как правило, 60/qpmin=10/qpmax=51/qpstep=4/cplxblur=20, привычно, 0/qblur=0, как зеркало стальное, 5/ip_ratio=1, едва заметно, 40/aq=1: 1, как колыбельная песня, 00
    Default : Да
    Forced : Нет
    Аудио #1
    Идентификатор : 2
    Формат : AC-3
    Формат/Информация : Audio Coding 3
    Расширение режима : CM (complete main)
    Параметр Endianness формата : Big
    Идентификатор кодека : A_AC3
    Продолжительность : 1 ч. Турция это южная страна, сказал кто-то. 34 м.
    Вид битрейта : Постоянный
    Битрейт : 384 Кбит/сек
    Каналы : 2 канала
    Расположение каналов : Front: L R
    Частота : 48, по большей части, 0 КГц
    Частота кадров : 31, в большинстве случаев, 250 кадров/сек
    Метод сжатия : С потерями
    Размер потока : 259 Мбайт (7%)
    Заголовок : LostFilm.TV
    Язык : Russian
    Default : Да
    Forced : Нет
    Аудио #2
    Идентификатор : 3
    Формат : AC-3
    Формат/Информация : Audio Coding 3
    Расширение режима : CM (complete main)
    Параметр Endianness формата : Big
    Идентификатор кодека : A_AC3
    Продолжительность : 1 ч. Боже как давно это было. 34 м.
    Вид битрейта : Постоянный
    Битрейт : 384 Кбит/сек
    Каналы : 2 канала
    Расположение каналов : Front: L R
    Частота : 48, словно сон, 0 КГц
    Частота кадров : 31, хлещет как из ведра, 250 кадров/сек
    Метод сжатия : С потерями
    Размер потока : 259 Мбайт (7%)
    Язык : English
    Default : Нет
    Forced : Нет


    Скриншоты для ознакомления



    Прямая ссылка скачивания через uTorrent


    Твин Пикс/Twin Peaks (1990) BDRip [H.264/720p-LQ] (сезон 2, серии 1-5 из 22) LostFilm (обновляемая)
    загрузка...
    Рейтинг →
     (голосов: 1, оценка 3/5, голосовать можно 1 раз )

    Другие торренты по теме:

  • Твин Пикс / Twin Peaks (1990-1991) BDRemux [1080p] (сезоны 1-2, серии 1-30 из 30) торрент скачать бесплатно
  • Твин Пикс / Twin Peaks (1990) HDRip (сезон 1, серии 1 из 8) AlexFilm (обновляемая) скачать через торрент бесплатно
  • Angelo Badalamenti - Твин Пикс / Twin Peaks (1990) [AAC|WEB-DL|256 кб / с]<Score> скачать через торрент бесплатно
  • Твин Пикс: Вырезанные сцены / Twin Peaks: The Missing Pieces (2014) BDRip [H.264 / 1080p] скачать торрент бесплатно
  • Твин Пикс / Twin Peaks (1990) WEB-DLRip (сезон 1, серии 1-4 из 8) LostFilm (обновляемая) скачать торрент бесплатно
  • Твин Пикс / Twin Peaks (1990) BDRip [H.264] (сезон 1, серии 1-4 из 8) LostFilm [MP4|960x720] скачать торрент бесплатно
  • Твин Пикс / Twin Peaks (1990) BDRip [H.264 / 720p-LQ] (сезон 1, серии 1-4 из 8) LostFilm (обновляемая) скачать торрент бесплатно
  • Твин Пикс / Twin Peaks (1990) BDRip [H.264 / 1080p] (сезон 1, серии 1-8 из 8) LostFilm, Sci-Fi, ОРТ, РТР, Сербин скачать торрент бесплатно


    • Комментарии (0):

      Информация

      Информация

        Посетители, находящиеся в группе Гости, не могут оставлять комментарии в данной новости.

        ↓ Меню




        ↓ Опрос

        Вы добавили сайт в закладки?
        Да
        Нет


        Top 10 за неделю (Программы)