.
Авторизация | Регистрация
Хочешь лучшие торренты? Добавь свой email!
Добавить

Торрент скачать бесплатно

» » Твин Пикс / Twin Peaks (1990) BDRip [H.264 / 720p-LQ] (сезон 2, серии 1-5 из 22) LostFilm (обновляемая) торрент скачать бесплатно



    Твин Пикс / Twin Peaks (1990) BDRip [H.264 / 720p-LQ] (сезон 2, серии 1-5 из 22) LostFilm (обновляемая) торрент скачать бесплатно

    Опубликовал: Админ | Дата: 9-02-2017, 05:01 | Просмотров: 1

    Производство: США
    Жанр: триллер, драма, криминал, детектив
    Режиссер: Дэвид Линч
    Актеры: Кайл МакЛоклен, Майкл Онткин, Шерил Ли, Лара Флинн Бойл, Шерилин Фенн, Рэй Уайз, Мигель Феррер, Дэвид Линч, Билли Зейн, Хэзер Грэмс и др.

    Описание

    История начинается с известия о находке обнаженного тела Лоры Палмер, завернутого в полиэтилен и выброшенного волнами на берег озера. В ходе расследования перед внимательными взглядами агента Купера, шерифа Трумана и его помощников проходят разные жители Твин Пикс. Постепенно зритель открывает для себя темную и страшную сторону жизни обитателей на первый взгляд тихого и мирного городка..

    Возраст: 16+ (зрителям, достигшим 16 лет)
    Продолжительность: ~00: 45: 00 серия (1 серия ~01: 34: 00)
    Качество видео: BDRip
    Перевод: Многоголосый закадровый, профессиональный -LostFilm
    Реклама: присутствуют заставка и логотип LostFilm
    Видео: AVC/H.264, 960x720 (4: 3), ~4550 Кбит/сек
    Аудио #1 Rus: AC3, 2 канала, 384 Кбит/сек - (многоголосый закадровый)
    Аудио #2 Eng: AC3, 2 канала, 384 Кбит/сек - (оригинал)

    Полное имя : N: Twin_Peaks_s2_BDRip720p_LostFilm_NNMClubTwin.Peaks.S02E01.720p.rus.LostFilm.TV.mkv
    Формат : Matroska
    Версия формата : Version 4/Version 2
    Размер файла : 3, 51 Гбайт
    Продолжительность : 1 ч. 34 м.
    Общий поток : 5320 Кбит/сек
    Дата кодирования : UTC 2017-02-06 19: 19: 13
    Программа кодирования : mkvmerge v6.8.0 (\'Theme for Great Cities\') 64bit built on Mar 2 2014 21: 34: 26
    Библиотека кодирования : libebml v1.3.0 + libmatroska v1.4.1
    Видео
    Идентификатор : 1
    Формат : AVC
    Формат/Информация : Advanced Video Codec
    Профиль формата : High@L4.1
    Параметр CABAC формата : Да
    Параметр ReFrames формата : 8 кадров
    Идентификатор кодека : V_MPEG4/ISO/AVC
    Продолжительность : 1 ч. 34 м.
    Битрейт : 4550 Кбит/сек
    Ширина : 960 пикселей
    Высота : 720 пикселей
    Соотношение сторон : 4: 3
    Режим частоты кадров : Постоянный
    Частота кадров : 23, 976 кадра/сек
    Цветовое пространство : YUV
    Субдискретизация насыщенности : 4: 2: 0
    Битовая глубина : 8 бит
    Тип развёртки : Прогрессивная
    Бит/(Пиксели*Кадры) : 0.275
    Размер потока : 2, 93 Гбайт (84%)
    Библиотека кодирования : x264 core 146 r2538M 121396c
    Настройки программы : cabac=1/ref=9/deblock=1: -1: -1/analyse=0x3: 0x133/me=umh/subme=9/psy=1/psy_rd=1, 00: 0, 15/mixed_ref=1/me_range=24/chroma_me=1/trellis=1/8x8dct=1/cqm=0/deadzone=21, 11/fast_pskip=1/chroma_qp_offset=-3/threads=16/lookahead_threads=2/sliced_threads=0/nr=0/decimate=1/interlaced=0/bluray_compat=0/constrained_intra=0/bframes=9/b_pyramid=1/b_adapt=2/b_bias=0/direct=3/weightb=1/open_gop=0/weightp=2/keyint=230/keyint_min=23/scenecut=40/intra_refresh=0/rc_lookahead=230/rc=2pass/mbtree=1/bitrate=4550/ratetol=1, 0/qcomp=0, 60/qpmin=10/qpmax=51/qpstep=4/cplxblur=20, 0/qblur=0, 5/ip_ratio=1, 40/aq=1: 1, 00
    Default : Да
    Forced : Нет
    Аудио #1
    Идентификатор : 2
    Формат : AC-3
    Формат/Информация : Audio Coding 3
    Расширение режима : CM (complete main)
    Параметр Endianness формата : Big
    Идентификатор кодека : A_AC3
    Продолжительность : 1 ч. 34 м.
    Вид битрейта : Постоянный
    Битрейт : 384 Кбит/сек
    Каналы : 2 канала
    Расположение каналов : Front: L R
    Частота : 48, 0 КГц
    Частота кадров : 31, 250 кадров/сек
    Метод сжатия : С потерями
    Размер потока : 259 Мбайт (7%)
    Заголовок : LostFilm.TV
    Язык : Russian
    Default : Да
    Forced : Нет
    Аудио #2
    Идентификатор : 3
    Формат : AC-3
    Формат/Информация : Audio Coding 3
    Расширение режима : CM (complete main)
    Параметр Endianness формата : Big
    Идентификатор кодека : A_AC3
    Продолжительность : 1 ч. 34 м.
    Вид битрейта : Постоянный
    Битрейт : 384 Кбит/сек
    Каналы : 2 канала
    Расположение каналов : Front: L R
    Частота : 48, 0 КГц
    Частота кадров : 31, 250 кадров/сек
    Метод сжатия : С потерями
    Размер потока : 259 Мбайт (7%)
    Язык : English
    Default : Нет
    Forced : Нет


    Скриншоты для ознакомления



    Прямая ссылка скачивания через uTorrent


    Твин Пикс/Twin Peaks (1990) BDRip [H.264/720p-LQ] (сезон 2, серии 1-5 из 22) LostFilm (обновляемая)
    загрузка...
    Рейтинг →
     (голосов: 1, оценка 3/5, голосовать можно 1 раз )

    Другие торренты по теме:

  • Твин Пикс / Twin Peaks (1990-1991) BDRemux [1080p] (сезоны 1-2, серии 1-30 из 30)
  • Твин Пикс / Twin Peaks (1990) HDRip (сезон 1, серии 1 из 8) AlexFilm (обновляемая) скачать через торрент бесплатно
  • Angelo Badalamenti - Твин Пикс / Twin Peaks (1990) [AAC|WEB-DL|256 кб / с]<Score> скачать через торрент бесплатно
  • Твин Пикс: Вырезанные сцены / Twin Peaks: The Missing Pieces (2014) BDRip [H.264 / 1080p]
  • Твин Пикс / Twin Peaks (1990) WEB-DLRip (сезон 1, серии 1-4 из 8) LostFilm (обновляемая)
  • Твин Пикс / Twin Peaks (1990) BDRip [H.264] (сезон 1, серии 1-4 из 8) LostFilm [MP4|960x720]
  • Твин Пикс / Twin Peaks (1990) BDRip [H.264 / 720p-LQ] (сезон 1, серии 1-4 из 8) LostFilm (обновляемая)
  • Твин Пикс / Twin Peaks (1990) BDRip [H.264 / 1080p] (сезон 1, серии 1-8 из 8) LostFilm, Sci-Fi, ОРТ, РТР, Сербин


    • Комментарии (0):

      Информация

      Информация

        Посетители, находящиеся в группе Гости, не могут оставлять комментарии в данной новости.

        ↓ Меню




        ↓ Опрос

        Вы добавили сайт в закладки?
        Да
        Нет


        Top 10 за месяц (Программы)