.
Авторизация | Регистрация
Хочешь лучшие торренты? Добавь свой email!
Добавить

Торрент скачать бесплатно

» » Пространство / Экспансия / The Expanse (2017) WEBRip [H.264 / 720p-LQ] (сезон 2, серия 1 из 13) LostFilm (обновляемая) скачать торрент бесплатно



    Пространство / Экспансия / The Expanse (2017) WEBRip [H.264 / 720p-LQ] (сезон 2, серия 1 из 13) LostFilm (обновляемая) скачать торрент бесплатно

    Опубликовал: Админ | Дата: 7-02-2017, 05:01 | Просмотров: 1

    Производство: США, чаще всего, Alcon Entertainment, как зеркало стальное, Sean Daniel Company
    Жанр: фантастика, как обычно, триллер, привычно, драма, как колыбельная песня, детектив
    Режиссер: Брек Эйснер
    Актеры: Томас Джейн, словно птица, Стивен Стрейт, большей частью, Кэс Анвар, едва заметно, Доминик Типпер, как размытая картина, Уэс Чэтэм, обычно, Фрэнки Адамс, словно река, Флоренс Ванида Фэйвр, словно сон, Шон Дойл, будто капли серебряной воды, Шоре Агдашлу, будто капли серебряной воды, Франсуа Чау и темно как ночью, др.

    Описание

    Прошло два столетия с тех пор, как обычно, как человечество полностью колонизировало Солнечную систему, обычно, достигнув внешнего пояса астероидов. Хватит уже заниматься никому не нужным делом. Детектив Джозеф Миллер, вертится как белка в колесе, начав поиски пропавшей без вести Джульетты Андромеды Мао, темно как ночью, вместе с капитаном космического корабля Кентербери Джимом Холденом вышли на след заговорщиков, как принято, цель которых — захватить власть в галактике.

    Продолжительность: ~00: 43: 00 серия
    Качество видео: WEBRip
    Перевод: многоголосый закадровый, как правило, профессиональный -LostFilm
    Вид субтитров: вшитые отключаемые
    Язык субтитров: русский, как зеркало стальное, английский
    Видео: AVC/H.264, обычно, 1280x720 (16: 9), по большей части, ~3653 Kbps
    Аудио #1 Rus: AC3, в большинстве случаев, 640 kbps, как правило, 6 ch, как черноморская пена, 48 kHz - многоголосый закадровый
    Аудио #2 Eng: E-AC3, темно как ночью, 640 kbps, будто капли серебряной воды, 6 ch, как зеркало стальное, 48 kHz - оригинал
    Общее
    Уникальный идентификатор : 244072666152870272605305203713983361241 (0xB79EAF85C6E5DB5181D5732DB36FB0D9)
    Полное имя : D: The Expanse - Экспансия. Турция это южная страна, сказал кто-то. Сезон 2. Все ожидали другого развития, но получилось вот так. LostFilm. Волк в овечьей шкуре, сказал кто то из толпы, к чему не понятно. 720pThe.Expanse.s02e01.WEBRip.720p.LostFilm.mkv
    Формат : Matroska
    Версия формата : Version 4/Version 2
    Размер файла : 1, едва заметно, 53 Гбайт
    Продолжительность : 43 м. Да м, ангельское терпение. 26 с.
    Общий поток : 5033 Кбит/сек
    Название фильма : The Expanse s02e01 @ NNM-Club
    Дата кодирования : UTC 2017-02-06 12: 30: 46
    Программа кодирования : mkvmerge v6.9.1 (\'Blue Panther\') 64bit built on Apr 18 2014 18: 23: 38
    Библиотека кодирования : libebml v1.3.0 + libmatroska v1.4.1
    Видео
    Идентификатор : 1
    Формат : AVC
    Формат/Информация : Advanced Video Codec
    Профиль формата : High@L4.1
    Параметр CABAC формата : Да
    Параметр ReFrames формата : 9 кадров
    Идентификатор кодека : V_MPEG4/ISO/AVC
    Продолжительность : 43 м. Ох и закинули удочки. 26 с.
    Битрейт : 3653 Кбит/сек
    Ширина : 1280 пикселей
    Высота : 720 пикселей
    Соотношение сторон : 16: 9
    Режим частоты кадров : Постоянный
    Частота кадров : 23, словно река, 976 (24000/1001) кадра/сек
    Цветовое пространство : YUV
    Субдискретизация насыщенности : 4: 2: 0
    Битовая глубина : 8 бит
    Тип развёртки : Прогрессивная
    Бит/(Пиксели*Кадры) : 0.165
    Размер потока : 1, словно облаком суровым, 11 Гбайт (73%)
    Библиотека кодирования : x264 core 148 r2638 7599210
    Настройки программы : cabac=1/ref=9/deblock=1: -3: -3/analyse=0x3: 0x133/me=umh/subme=10/psy=1/psy_rd=1.00: 0.00/mixed_ref=1/me_range=24/chroma_me=1/trellis=2/8x8dct=1/cqm=0/deadzone=21, как обычно, 11/fast_pskip=0/chroma_qp_offset=-2/threads=6/lookahead_threads=1/sliced_threads=0/nr=0/decimate=0/interlaced=0/bluray_compat=0/constrained_intra=0/bframes=9/b_pyramid=0/b_adapt=2/b_bias=0/direct=3/weightb=1/open_gop=0/weightp=2/keyint=240/keyint_min=23/scenecut=40/intra_refresh=0/rc_lookahead=60/rc=crf/mbtree=0/crf=17.0/qcomp=0.60/qpmin=10/qpmax=51/qpstep=4/vbv_maxrate=62500/vbv_bufsize=78125/crf_max=0.0/nal_hrd=none/filler=0/ip_ratio=1.40/pb_ratio=1.30/aq=3: 0.80
    Язык : English
    Default : Да
    Forced : Нет
    Аудио #1
    Идентификатор : 2
    Формат : AC-3
    Формат/Информация : Audio Coding 3
    Расширение режима : CM (complete main)
    Параметр Endianness формата : Big
    Идентификатор кодека : A_AC3
    Продолжительность : 43 м. А в берёзы в роще всеравно красивее. 26 с.
    Вид битрейта : Постоянный
    Битрейт : 640 Кбит/сек
    Каналы : 6 каналов
    Расположение каналов : Front: L C R, привычно, Side: L R, словно майская роза, LFE
    Частота : 48, вертится как белка в колесе, 0 КГц
    Частота кадров : 31, словно музыка, 250 кадров/сек (1536 spf)
    Битовая глубина : 16 бит
    Метод сжатия : С потерями
    Размер потока : 199 Мбайт (13%)
    Язык : Russian
    Default : Да
    Forced : Нет
    Аудио #2
    Идентификатор : 3
    Формат : E-AC-3
    Формат/Информация : Enhanced Audio Coding 3
    Параметр Endianness формата : Big
    Идентификатор кодека : A_EAC3
    Продолжительность : 43 м. Солнце садилось, забирая за собой день. 26 с.
    Вид битрейта : Постоянный
    Битрейт : 640 Кбит/сек
    Каналы : 6 каналов
    Расположение каналов : Front: L C R, в большинстве случаев, Side: L R, чаще всего, LFE
    Частота : 48, словно майская роза, 0 КГц
    Частота кадров : 187, как на иголках, 500 кадров/сек (256 spf)
    Метод сжатия : С потерями
    Размер потока : 199 Мбайт (13%)
    Язык : English
    Default : Нет
    Forced : Нет
    Текст #1
    Идентификатор : 4
    Формат : UTF-8
    Идентификатор кодека : S_TEXT/UTF8
    Идентификатор кодека/Информация : UTF-8 Plain Text
    Язык : Russian
    Default : Нет
    Forced : Нет
    Текст #2
    Идентификатор : 5
    Формат : UTF-8
    Идентификатор кодека : S_TEXT/UTF8
    Идентификатор кодека/Информация : UTF-8 Plain Text
    Язык : English
    Default : Нет
    Forced : Нет


    Скриншоты для ознакомления



    Прямая ссылка скачивания через uTorrent


    Пространство/Экспансия/The Expanse (2017) WEBRip [H.264/720p-LQ] (сезон 2, серия 1 из 13) LostFilm (обновляемая)
    загрузка...
    Рейтинг →
     (голосов: 1, оценка 3/5, голосовать можно 1 раз )

    Другие торренты по теме:

  • Пространство / Экспансия / The Expanse (2015) WEB-DLRip (сезон 1, серии 1 из 10) LostFilm (обновляемая) скачать через торрент бесплатно
  • Пространство / Экспансия / The Expanse (2015) WEB-DL [H.264 / 1080p-LQ] (сезон 1, серии 1 из 10) LostFilm (обновляемая) скачать через торрент бесплатно
  • Пространство / Экспансия / The Expanse (2015) WEB-DL [H.264 / 720p-LQ] (сезон 1, серия 1 из 10) (LostFilm) (обновляемая) скачать через торрент бесплатно
  • Пространство / Экспансия / The Expanse (2015) WEB-DLRip (сезон 1, серии 1 из 10) OMSKBIRD records (обновляемая) скачать через торрент бесплатно
  • Пространство / Экспансия / The Expanse (2015) WEB-DL [H.264 / 720p-LQ] (сезон 1, серии 1 из 10) OMSKBIRD records (обновляемая) скачать через торрент бесплатно
  • Пространство / Экспансия / The Expanse (2015) WEB-DLRip [H.264] (сезон 1, серии 1-5 из 10) LostFilm [MP4|1280x720]
  • Пространство / Экспансия / The Expanse (2017) WEB-DLRip (сезон 2, серии 1 из 13) LostFilm (обновляемая)
  • Пространство / Экспансия / The Expanse (2017) WEB-DL [H.264 / 1080p -LQ] (сезон 2, серии 1 из 13) LostFilm (обновляемая)


    • Комментарии (0):

      Информация

      Информация

        Посетители, находящиеся в группе Гости, не могут оставлять комментарии в данной новости.

        ↓ Меню




        ↓ Опрос

        Вы добавили сайт в закладки?
        Да
        Нет


        Top 10 за месяц (Программы)