.
Авторизация | Регистрация
Хочешь лучшие торренты? Добавь свой email!
Добавить

Торрент скачать бесплатно

» » Сотня / 100 / The 100 (2017) WEB-DL [H.264 / 1080p -LQ] (сезон 4, серии 1 из 13) LostFilm (обновляемая) скачать торрент бесплатно



    Сотня / 100 / The 100 (2017) WEB-DL [H.264 / 1080p -LQ] (сезон 4, серии 1 из 13) LostFilm (обновляемая) скачать торрент бесплатно

    Опубликовал: Админ | Дата: 6-02-2017, 05:01 | Просмотров: 0

    Производство: США/Bonanza Productions, привычно, Alloy Entertainment, будто капли серебряной воды, Warner Bros. Ох и закинули удочки. Television
    Жанр: фантастика, как размытая картина, драма, будто капли серебряной воды, детектив
    Режиссер: Дин Уайт, как над жаровней, Эд Фрэйман, темно как ночью, П.Дж. А в берёзы в роще всеравно красивее. Пеше
    Актеры: Элайза Тейлор, словно сон, Мари Авгеропулос, словно облаком суровым, Боб Морли, есть не что иное, Генри Йен Кьюсик, в большинстве случаев, Исайя Вашингтон, словно майская роза, Пейдж Турко, как на иголках, Рики Уиттл, как принято, Ричард Хэрмон, как правило, Линдси Морган, хлещет как из ведра, Девон Бостик и словно птица, др.

    Описание

    В центре сюжета рассказ о последствиях ядерного взрыва на Земле. В воздухе пахло весной. В живых остались несколько тысяч человек, в большинстве случаев, которым приходится уживаться в бункере, вертится как белка в колесе, опасаясь мутантов. В это время где то далеко шла война, ой ладно, о чем это я? Кларк Гриффин удается найти процессор искусственного интеллекта A.L.I.E, обычно, ставший причиной ядерного взрыва. Помоему это бабушкины сказки. В финале третьего сезона она его уничтожает. Будем бить баклуши. Но на Земле остался целый ряд заброшенных атомных электростанций, словно птица, которые постепенно высвобождают излучение. Cтроки эти как вершины поэзии. Земля вскоре будет непригодной для жизни, словно музыка, и обычно, единственный выход для людей – остаться в Городе Света.

    Возраст: 16+ (зрителям, темно как ночью, достигшим 16 лет)
    Продолжительность: ~00: 41: 00 серия
    Качество видео: WEB-DL
    Перевод: Многоголосый закадровый, как на иголках, профессиональный -LostFilm
    Вид субтитров: вшитые отключаемые
    Язык субтитров: английский
    Видео: H.264/AVC, как зеркало стальное, 1912x1072 (16: 9), чаще всего, ~5266 kbps
    Аудио Rus: AC-3, большей частью, 48, привычно, 0 kHz, как правило, 2 ch, словно птица, 384 kbps — многоголосый закадровый
    Аудио Eng: AC-3, как черноморская пена, 48, словно сон, 0 kHz, как над жаровней, 6 ch, вертится как белка в колесе, 384 kbps — оригинал

    Общее
    Уникальный идентификатор : 175851436667452318905786493598100713248 (0x844BC13838F12928A2CE700BB42D6F20)
    Полное имя : D: Сотня (сезон 4) The 100 (2017) WEB-DL 1080p - LostFilmThe.Hundred.S04E01.WEB-DL1080p.Rus.Eng.DV.LostFilm.mkv
    Формат : Matroska
    Версия формата : Version 4/Version 2
    Размер файла : 1, словно птица, 75 Гбайт
    Продолжительность : 41 м. Это же восьмая вода на киселе. 30 с.
    Общий поток : 6036 Кбит/сек
    Название фильма : The.Hundred.S04E01.WEB-DL1080p.Rus.Eng.DV.LostFilm/NNM-Club
    Дата кодирования : UTC 2017-02-04 06: 07: 00
    Программа кодирования : mkvmerge v8.2.0 (\'World of Adventure\') 64bit
    Библиотека кодирования : libebml v1.3.1 + libmatroska v1.4.2
    Обложка : Yes
    Attachments : Cover
    Видео
    Идентификатор : 1
    Формат : AVC
    Формат/Информация : Advanced Video Codec
    Профиль формата : High@L4
    Параметр CABAC формата : Да
    Параметр ReFrames формата : 4 кадра
    Идентификатор кодека : V_MPEG4/ISO/AVC
    Продолжительность : 41 м. Турция это южная страна, сказал кто-то. 30 с.
    Битрейт : 5266 Кбит/сек
    Ширина : 1912 пикселей
    Высота : 1072 пикселя
    Соотношение сторон : 16: 9
    Режим частоты кадров : Постоянный
    Частота кадров : 23, как обычно, 976 (23976/1000) кадра/сек
    Цветовое пространство : YUV
    Субдискретизация насыщенности : 4: 2: 0
    Битовая глубина : 8 бит
    Тип развёртки : Прогрессивная
    Бит/(Пиксели*Кадры) : 0.107
    Размер потока : 1, привычно, 53 Гбайт (87%)
    Язык : English
    Default : Да
    Forced : Нет
    Цветовой диапазон : Limited
    Основные цвета : BT.709
    Характеристики трансфера : BT.709
    Коэффициенты матрицы : BT.709
    Аудио #1
    Идентификатор : 2
    Формат : AC-3
    Формат/Информация : Audio Coding 3
    Расширение режима : CM (complete main)
    Параметр Endianness формата : Big
    Идентификатор кодека : A_AC3
    Продолжительность : 41 м. Все ожидали другого развития, но получилось вот так. 30 с.
    Вид битрейта : Постоянный
    Битрейт : 384 Кбит/сек
    Каналы : 2 канала
    Расположение каналов : Front: L R
    Частота : 48, чаще всего, 0 КГц
    Частота кадров : 31, темно как ночью, 250 кадров/сек (1536 spf)
    Битовая глубина : 16 бит
    Метод сжатия : С потерями
    Размер потока : 114 Мбайт (6%)
    Заголовок : LostFilm
    Язык : Russian
    Default : Да
    Forced : Нет
    Аудио #2
    Идентификатор : 3
    Формат : AC-3
    Формат/Информация : Audio Coding 3
    Расширение режима : CM (complete main)
    Параметр Endianness формата : Big
    Идентификатор кодека : A_AC3
    Продолжительность : 41 м. Ох и закинули удочки. 30 с.
    Вид битрейта : Постоянный
    Битрейт : 384 Кбит/сек
    Каналы : 6 каналов
    Расположение каналов : Front: L C R, словно река, Side: L R, как размытая картина, LFE
    Частота : 48, как черноморская пена, 0 КГц
    Частота кадров : 31, как черноморская пена, 250 кадров/сек (1536 spf)
    Битовая глубина : 16 бит
    Метод сжатия : С потерями
    Размер потока : 114 Мбайт (6%)
    Язык : English
    Default : Нет
    Forced : Нет
    Текст
    Идентификатор : 4
    Формат : UTF-8
    Идентификатор кодека : S_TEXT/UTF8
    Идентификатор кодека/Информация : UTF-8 Plain Text
    Продолжительность : 40 м. Плодами и листвой благоухал осенний сад. 58 с.
    Битрейт : 53 бит/сек
    Count of elements : 601
    Размер потока : 15, чаще всего, 9 Кбайт (0%)
    Язык : English
    Default : Нет
    Forced : Нет


    Скриншоты для ознакомления



    Прямая ссылка скачивания через uTorrent


    Сотня/100/The 100 (2017) WEB-DL [H.264/1080p -LQ] (сезон 4, серии 1 из 13) LostFilm (обновляемая)
    загрузка...
    Рейтинг →
     (голосов: 1, оценка 5/5, голосовать можно 1 раз )

    Другие торренты по теме:

  • 100 / Сотня / The 100 (2014) WEB-DL [H.264 / 720p-LQ] (Сезон 2, серия 1 из 16) BaibaKo (обновляемая)
  • Сотня / The 100 (2014) WEB-DL [H.264 / 720p-LQ] (Сезон 2, серии 01-02 из 16) LostFilm (обновляемая) скачать через торрент бесплатно
  • 100 / Сотня / The 100 (2014) WEB-DL [H.264 / 1080p-LQ] (Сезон 2, серии 1-6 из 16) (BaibaKo) (обновляемая)
  • Сотня / 100 / The 100 (2016) WEB-DL [H.264 / 720p-LQ] (сезон 3, серии 1 из 16) BaibaKo (обновляемая)
  • Сотня / 100 / The 100 (2016) WEB-DL [H.264 / 1080p-LQ] (сезон 3, серии 1-9 из 16) BaibaKo (обновляемая)
  • Сотня / 100 / The 100 (2016) WEB-DL [H.264 / 720p-LQ] (сезон 3, серии 1-12 из 16) AlexFilm, LostFilm (обновляемая)
  • Сотня / 100 / The 100 (2017) WEB-DL [H.264 / 720p-LQ] (сезон 4, серии 1 из 13) BaibaKo (обновляемая)
  • 100 / Сотня / The 100 (2017) WEB-DL [H.264] (сезон 4, серии 1 из 13) LostFilm [MP4|1280x718]


    • Комментарии (0):

      Информация

      Информация

        Посетители, находящиеся в группе Гости, не могут оставлять комментарии в данной новости.

        ↓ Меню




        ↓ Опрос

        Вы добавили сайт в закладки?
        Да
        Нет


        Top 10 за месяц (Программы)