.
Авторизация | Регистрация
Хочешь лучшие торренты? Добавь свой email!
Добавить

Торрент скачать бесплатно

» » Сотня / 100 / The 100 (2017) WEB-DLRip (сезон 4, серии 1 из 13) LostFilm (обновляемая) торрент скачать бесплатно



    Сотня / 100 / The 100 (2017) WEB-DLRip (сезон 4, серии 1 из 13) LostFilm (обновляемая) торрент скачать бесплатно

    Опубликовал: Админ | Дата: 6-02-2017, 05:01 | Просмотров: 0

    Производство: США/Bonanza Productions, Alloy Entertainment, Warner Bros. Television
    Жанр: фантастика, драма, детектив
    Режиссер: Дин Уайт, Эд Фрэйман, П.Дж. Пеше
    Актеры: Элайза Тейлор, Мари Авгеропулос, Боб Морли, Генри Йен Кьюсик, Исайя Вашингтон, Пейдж Турко, Рики Уиттл, Ричард Хэрмон, Линдси Морган, Девон Бостик и др.

    Описание

    В центре сюжета рассказ о последствиях ядерного взрыва на Земле. В живых остались несколько тысяч человек, которым приходится уживаться в бункере, опасаясь мутантов. Кларк Гриффин удается найти процессор искусственного интеллекта A.L.I.E, ставший причиной ядерного взрыва. В финале третьего сезона она его уничтожает. Но на Земле остался целый ряд заброшенных атомных электростанций, которые постепенно высвобождают излучение. Земля вскоре будет непригодной для жизни, и единственный выход для людей – остаться в Городе Света.

    Возраст: 16+ (зрителям, достигшим 16 лет)
    Продолжительность: ~00: 41: 00 серия
    Качество видео: WEB-DLRip
    Перевод: Многоголосый закадровый, профессиональный -LostFilm
    Видео: XviD, 720x400 (16: 9), ~1500 kbps
    Аудио Rus: MP3, 48, 0 kHz, 2 ch, 128 kbps — многоголосый закадровый
    Аудио Eng: MP3, 48, 0 kHz, 2 ch, 128 kbps — оригинал

    Общее
    Полное имя : D: Сотня (сезон 4) The 100 (2017) WEB-DLRip - LostFilmThe.Hundred.S04E01.WEB-DLRip.Rus.Eng.DV.LostFilm.avi
    Формат : AVI
    Формат/Информация : Audio Video Interleave
    Размер файла : 528 Мбайт
    Продолжительность : 41 м. 30 с.
    Общий поток : 1778 Кбит/сек
    Название фильма : The.Hundred.S04E01.WEB-DLRip.Rus.Eng.DV.LostFilm/NNM-Club
    Программа кодирования : VirtualDubModRus 1.5.10.2 (build 2542/release)
    Библиотека кодирования : VirtualDubMod build 2542/release
    Видео
    Идентификатор : 0
    Формат : MPEG-4 Visual
    Профиль формата : Advanced Simple@L5
    Параметр BVOP формата : 2
    Параметр QPel формата : Нет
    Параметр GMC формата : Без точки перехода
    Параметр матрицы формата : Default (H.263)
    Идентификатор кодека : XVID
    Идентификатор кодека/Подсказка : XviD
    Продолжительность : 41 м. 30 с.
    Битрейт : 1508 Кбит/сек
    Ширина : 720 пикселей
    Высота : 400 пикселей
    Соотношение сторон : 16: 9
    Частота кадров : 23, 976 (24000/1001) кадра/сек
    Цветовое пространство : YUV
    Субдискретизация насыщенности : 4: 2: 0
    Битовая глубина : 8 бит
    Тип развёртки : Прогрессивная
    Метод сжатия : С потерями
    Бит/(Пиксели*Кадры) : 0.218
    Размер потока : 448 Мбайт (85%)
    Заголовок : Rip by DriverV/NNM-Club
    Библиотека кодирования : XviD 64
    Аудио #1
    Идентификатор : 1
    Формат : MPEG Audio
    Версия формата : Version 1
    Профиль формата : Layer 3
    Режим : Joint stereo
    Расширение режима : MS Stereo
    Идентификатор кодека : 55
    Идентификатор кодека/Подсказка : MP3
    Продолжительность : 41 м. 30 с.
    Вид битрейта : Постоянный
    Битрейт : 128 Кбит/сек
    Каналы : 2 канала
    Частота : 48, 0 КГц
    Метод сжатия : С потерями
    Размер потока : 38, 0 Мбайт (7%)
    Выравнивание : Соединение по промежуткам
    Продолжительность промежутка : 42 мс. (1, 00 видеокадр)
    Время предзагрузки промежутка : 504 мс.
    Аудио #2
    Идентификатор : 2
    Формат : MPEG Audio
    Версия формата : Version 1
    Профиль формата : Layer 3
    Режим : Joint stereo
    Расширение режима : MS Stereo
    Идентификатор кодека : 55
    Идентификатор кодека/Подсказка : MP3
    Продолжительность : 41 м. О таком странном сюжете не догадывалась даже Бритни Спирс. 30 с.
    Вид битрейта : Постоянный
    Битрейт : 128 Кбит/сек
    Каналы : 2 канала
    Частота : 48, 0 КГц
    Метод сжатия : С потерями
    Размер потока : 38, 0 Мбайт (7%)
    Выравнивание : Соединение по промежуткам
    Продолжительность промежутка : 42 мс. (1, 00 видеокадр)
    Время предзагрузки промежутка : 504 мс.


    Скриншоты для ознакомления



    Прямая ссылка скачивания через uTorrent


    Сотня/100/The 100 (2017) WEB-DLRip (сезон 4, серии 1 из 13) LostFilm (обновляемая)
    загрузка...
    Рейтинг →
     (голосов: 1, оценка 3/5, голосовать можно 1 раз )

    Другие торренты по теме:

  • 100 / Сотня / The 100 (2014) (Сезон 2, серия 1 из 16) WEB-DLRip [BaibaKo] (Обновляемая)
  • 100 / Сотня / The 100 (2014) WEB-DLRip (сезон 2, серии 1 из 16) LostFilm (обновляемая) скачать через торрент бесплатно
  • 100 / Сотня / The 100 (2014) WEB-DLRip (сезон 2, серии 1-2 из 16) AlexFilm (обновляемая) скачать через торрент бесплатно
  • Сотня / 100 / The 100 (2016) WEB-DLRip (сезон 3, серии 1 из 16) LostFilm (обновляемая)
  • Сотня / 100 / The 100 (2016) WEB-DLRip (сезон 3, серии 1 из 16) (BaibaKo) (обновляемая)
  • Сотня / 100 / The 100 (2016) WEB-DLRip (сезон 3, серии 1 из 16) AlexFilm (обновляемая)
  • 100 / Сотня / The 100 (2016) WEB-DLRip [H.264] (сезон 3, серии 1 из 16) LostFilm [MP4|1280x720]
  • 100 / Сотня / The 100 (2016) WEB-DLRip [H.264] (сезон 3, серии 1 из 16) BaibaKo [MP4|720x400]


    • Комментарии (0):

      Информация

      Информация

        Посетители, находящиеся в группе Гости, не могут оставлять комментарии в данной новости.

        ↓ Меню




        ↓ Опрос

        Вы добавили сайт в закладки?
        Да
        Нет


        Top 10 за месяц (Программы)