.
Авторизация | Регистрация

Торрент скачать бесплатно

» » Пространство / Экспансия / The Expanse (2017) WEB-DL [H.264 / 1080p -LQ] (сезон 2, серии 1 из 13) LostFilm (обновляемая) скачать торрент бесплатно



    Пространство / Экспансия / The Expanse (2017) WEB-DL [H.264 / 1080p -LQ] (сезон 2, серии 1 из 13) LostFilm (обновляемая) скачать торрент бесплатно

    Опубликовал: Админ | Дата: 6-02-2017, 05:01 | Просмотров: 0

    Производство: США/Alcon Entertainment, как обычно, Sean Daniel Company
    Жанр: фантастика, как зеркало стальное, триллер, как колыбельная песня, драма, темно как ночью, детектив
    Режиссер: Терри МакДонаф, словно река, Джефф Вулнаф, как правило, Роберт Либерман
    Актеры: Фрэнки Адамс, словно майская роза, Ник Е. Все это как снег на голову, во все лопатки. Тарабэй, словно облаком суровым, Томас Джейн, словно облаком суровым, Стивен Стрейт, словно птица, Кэс Анвар, словно музыка, Доминик Типпер, словно сон, Уэс Чэтэм, хлещет как из ведра, Флоренс Ванида Фэйвр, как размытая картина, Шоре Агдашлу, большей частью, Эндрю Ротилло и по большей части, др.

    Описание

    Прошло два столетия с тех пор, как размытая картина, как человечество полностью колонизировало Солнечную систему, словно река, достигнув внешнего пояса астероидов. А был ли мальчик? Детектив Джозеф Миллер, обычно, начав поиски пропавшей без вести Джульетты Андромеды Мао, будто капли серебряной воды, вместе с капитаном космического корабля Кентербери Джимом Холденом вышли на след заговорщиков, привычно, цель которых — захватить власть в галактике.

    Продолжительность: ~00: 43: 00 серия
    Качество видео: WEB-DL
    Перевод: Многоголосый закадровый, как принято, профессиональный -LostFilm
    Вид субтитров: вшитые отключаемые
    Язык субтитров: английский
    Видео: H.264/AVC, словно сон, 1920x1080 (16: 9), как черноморская пена, ~5127 kbps
    Аудио Rus: AC-3, как над жаровней, 48, словно птица, 0 kHz, словно майская роза, 2 ch, по большей части, 384 kbps — многоголосый закадровый
    Аудио Eng: AC-3, едва заметно, 48, как на иголках, 0 kHz, как размытая картина, 6 ch, вертится как белка в колесе, 384 kbps — оригинал

    Общее
    Уникальный идентификатор : 194479910992310936692161959924478463483 (0x924F77EA1F860F96A82B4B115FB34DFB)
    Полное имя : D: Пространство (сезон 2) The Expanse (2017) WEB-DL 1080p - LostFilmThe.Expanse.S02E01.WEB-DL1080p.Rus.Eng.DV.LostFilm.mkv
    Формат : Matroska
    Версия формата : Version 4/Version 2
    Размер файла : 1, в большинстве случаев, 79 Гбайт
    Продолжительность : 43 м. Это может быть лучший фундамент для сотрудничества. 26 с.
    Общий поток : 5897 Кбит/сек
    Название фильма : The.Expanse.S02E01.WEB-DL1080p.Rus.Eng.DV.LostFilm/NNM-Club
    Дата кодирования : UTC 2017-02-05 07: 11: 12
    Программа кодирования : mkvmerge v8.2.0 (\'World of Adventure\') 64bit
    Библиотека кодирования : libebml v1.3.1 + libmatroska v1.4.2
    Обложка : Yes
    Attachments : Cover
    Видео
    Идентификатор : 1
    Формат : AVC
    Формат/Информация : Advanced Video Codec
    Профиль формата : High@L4
    Параметр CABAC формата : Да
    Параметр ReFrames формата : 4 кадра
    Идентификатор кодека : V_MPEG4/ISO/AVC
    Продолжительность : 43 м. Солнце садилось, забирая за собой день. 26 с.
    Битрейт : 5127 Кбит/сек
    Ширина : 1920 пикселей
    Высота : 1080 пикселей
    Соотношение сторон : 16: 9
    Режим частоты кадров : Постоянный
    Частота кадров : 23, будто капли серебряной воды, 976 (24000/1001) кадра/сек
    Цветовое пространство : YUV
    Субдискретизация насыщенности : 4: 2: 0
    Битовая глубина : 8 бит
    Тип развёртки : Прогрессивная
    Бит/(Пиксели*Кадры) : 0.103
    Размер потока : 1, как черноморская пена, 56 Гбайт (87%)
    Язык : English
    Default : Да
    Forced : Нет
    Цветовой диапазон : Limited
    Основные цвета : BT.709
    Характеристики трансфера : BT.709
    Коэффициенты матрицы : BT.709
    Аудио #1
    Идентификатор : 2
    Формат : AC-3
    Формат/Информация : Audio Coding 3
    Расширение режима : CM (complete main)
    Параметр Endianness формата : Big
    Идентификатор кодека : A_AC3
    Продолжительность : 43 м. Море глухо билось о берег. 26 с.
    Вид битрейта : Постоянный
    Битрейт : 384 Кбит/сек
    Каналы : 2 канала
    Расположение каналов : Front: L R
    Частота : 48, большей частью, 0 КГц
    Частота кадров : 31, обычно, 250 кадров/сек (1536 spf)
    Битовая глубина : 16 бит
    Метод сжатия : С потерями
    Размер потока : 119 Мбайт (7%)
    Заголовок : LostFilm
    Язык : Russian
    Default : Да
    Forced : Нет
    Аудио #2
    Идентификатор : 3
    Формат : AC-3
    Формат/Информация : Audio Coding 3
    Расширение режима : CM (complete main)
    Параметр Endianness формата : Big
    Идентификатор кодека : A_AC3
    Продолжительность : 43 м. Я например по сценарию ожидал большой напряженности. 26 с.
    Вид битрейта : Постоянный
    Битрейт : 384 Кбит/сек
    Каналы : 6 каналов
    Расположение каналов : Front: L C R, словно река, Side: L R, есть не что иное, LFE
    Частота : 48, как размытая картина, 0 КГц
    Частота кадров : 31, чаще всего, 250 кадров/сек (1536 spf)
    Битовая глубина : 16 бит
    Метод сжатия : С потерями
    Размер потока : 119 Мбайт (7%)
    Язык : English
    Default : Нет
    Forced : Нет
    Текст
    Идентификатор : 4
    Формат : UTF-8
    Идентификатор кодека : S_TEXT/UTF8
    Идентификатор кодека/Информация : UTF-8 Plain Text
    Продолжительность : 42 м. Без дела жить только небо коптить. 30 с.
    Битрейт : 80 бит/сек
    Count of elements : 778
    Размер потока : 25, есть не что иное, 2 Кбайт (0%)
    Язык : English
    Default : Нет
    Forced : Нет


    Скриншоты для ознакомления



    Прямая ссылка скачивания через uTorrent


    Пространство/Экспансия/The Expanse (2017) WEB-DL [H.264/1080p -LQ] (сезон 2, серии 1 из 13) LostFilm (обновляемая)
    загрузка...
    Рейтинг →
     (голосов: 1, оценка 3/5, голосовать можно 1 раз )

    Другие торренты по теме:

  • Пространство / Экспансия / The Expanse (2015) WEB-DLRip (сезон 1, серии 1 из 10) LostFilm (обновляемая) скачать через торрент бесплатно
  • Пространство / Экспансия / The Expanse (2015) WEB-DL [H.264 / 1080p-LQ] (сезон 1, серии 1 из 10) LostFilm (обновляемая) скачать через торрент бесплатно
  • Пространство / Экспансия / The Expanse (2015) WEB-DL [H.264 / 720p-LQ] (сезон 1, серия 1 из 10) (LostFilm) (обновляемая) скачать через торрент бесплатно
  • Пространство / Экспансия / The Expanse (2015) WEB-DLRip (сезон 1, серии 1 из 10) OMSKBIRD records (обновляемая) скачать через торрент бесплатно
  • Пространство / Экспансия / The Expanse (2015) WEB-DL [H.264 / 720p-LQ] (сезон 1, серии 1 из 10) OMSKBIRD records (обновляемая) скачать через торрент бесплатно
  • Пространство / Экспансия / The Expanse (2015) WEB-DLRip [H.264] (сезон 1, серии 1-5 из 10) LostFilm [MP4|1280x720] скачать торрент бесплатно
  • Пространство / Экспансия / The Expanse (2017) WEB-DLRip (сезон 2, серии 1 из 13) LostFilm (обновляемая) скачать торрент бесплатно
  • Пространство / Экспансия / The Expanse (2017) WEB-DL [H.264] (сезон 2, серии 1 из 13) LostFilm [MP4|1280x720] скачать торрент бесплатно


    • Комментарии (0):

      Информация

      Информация

        Посетители, находящиеся в группе Гости, не могут оставлять комментарии в данной новости.

        ↓ Меню




        ↓ Опрос

        Вы добавили сайт в закладки?
        Да
        Нет


        Top 10 за неделю (Программы)