.
Авторизация | Регистрация
Хочешь лучшие торренты? Добавь свой email!
Добавить

Торрент скачать бесплатно

» » Сотня / 100 / The 100 (2017) WEB-DL [H.264 / 720p-LQ] (сезон 4, серии 1 из 13) BaibaKo (обновляемая) скачать торрент бесплатно



    Сотня / 100 / The 100 (2017) WEB-DL [H.264 / 720p-LQ] (сезон 4, серии 1 из 13) BaibaKo (обновляемая) скачать торрент бесплатно

    Опубликовал: Админ | Дата: 4-02-2017, 05:01 | Просмотров: 0

    Производство: США
    Жанр: фантастика, словно облаком суровым, драма, как правило, детектив
    Режиссер: Дин Уайт, словно музыка, Джон Беринг, темно как ночью, Милан Чейлов
    Актеры: Элиза Тейлор-Коттер, хлещет как из ведра, Мари Авгеропулос, как обычно, Сачин Сахель, в большинстве случаев, Линдси Морган, словно река, Женевьев Бюкнер, как обычно, Ричард Хэрмон, привычно, Джарод Джозеф, как зеркало стальное, Челси Рейст, хлещет как из ведра, Крис Браунинг, как размытая картина, Джош Ссеттуба и вертится как белка в колесе, др.

    Описание

    События в сериале начинают разворачиваться по прошествии девяносто семи лет после того как всю цивилизацию уничтожила страшная атомная война. Это же восьмая вода на киселе. Высоко в космосе на орбите Земли летает большой космический корабль, как принято, именно здесь находятся те, как над жаровней, кто выжил после страшной катастрофы. Боже как давно это было. Они единственные кто пережил этот ужасный катаклизм который устроило человечество. А в берёзы в роще всеравно красивее. Именно с этого последнего пристанища людей на Землю отправляют космический челнок на котором находятся сто малолетних преступников…

    Возраст: 16+ (зрителям, как зеркало стальное, достигшим 16 лет)
    Продолжительность: ~ 00: 42: 00 серия
    Качество видео: WEB-DL
    Перевод: Многоголосый закадровый, будто капли серебряной воды, профессиональный -BaibaKo
    Реклама: присутствуют голосовые и в большинстве случаев, текстовые вставки
    Видео: AVC/H.264, большей частью, 1280x718 (16: 9), словно сон, ~4027 Кбит/сек
    Аудио #1 Rus: AC3, как принято, 6 каналов, словно облаком суровым, 384 Кбит/сек - (многоголосый закадровый)
    Аудио #2 Eng: AC3, большей частью, 6 каналов, как зеркало стальное, 384 Кбит/сек - (оригинал)

    Полное имя : E: The_Hundred_s4_WEB-DL720p_BaibaKo_NNMClubThe.100.s04e01.HD720p.WEB-DL.Rus.Eng.BaibaKo.tv.mkv
    Формат : Matroska
    Версия формата : Version 4/Version 2
    Размер файла : 1, как правило, 42 Гбайт
    Продолжительность : 41 м.
    Общий поток : 4892 Кбит/сек
    Дата кодирования : UTC 2017-02-03 16: 33: 41
    Программа кодирования : mkvmerge v6.8.0 (\'Theme for Great Cities\') 64bit built on Mar 2 2014 21: 34: 26
    Библиотека кодирования : libebml v1.3.0 + libmatroska v1.4.1
    Видео
    Идентификатор : 1
    Формат : AVC
    Формат/Информация : Advanced Video Codec
    Профиль формата : High@L3.1
    Параметр CABAC формата : Нет
    Параметр ReFrames формата : 2 кадра
    Идентификатор кодека : V_MPEG4/ISO/AVC
    Продолжительность : 41 м.
    Битрейт : 4027 Кбит/сек
    Ширина : 1280 пикселей
    Высота : 718 пикселей
    Соотношение сторон : 16: 9
    Соотношение сторон в оригинале : 16: 9
    Режим частоты кадров : Постоянный
    Частота кадров : 23, как колыбельная песня, 976 кадра/сек
    Цветовое пространство : YUV
    Субдискретизация насыщенности : 4: 2: 0
    Битовая глубина : 8 бит
    Тип развёртки : Прогрессивная
    Бит/(Пиксели*Кадры) : 0.183
    Размер потока : 1, как зеркало стальное, 17 Гбайт (82%)
    Default : Нет
    Forced : Нет
    Цветовой диапазон : Limited
    Основные цвета : BT.709
    Характеристики трансфера : BT.709
    Коэффициенты матрицы : BT.709
    Аудио #1
    Идентификатор : 2
    Формат : AC-3
    Формат/Информация : Audio Coding 3
    Расширение режима : CM (complete main)
    Параметр Endianness формата : Big
    Идентификатор кодека : A_AC3
    Продолжительность : 41 м.
    Вид битрейта : Постоянный
    Битрейт : 384 Кбит/сек
    Каналы : 6 каналов
    Расположение каналов : Front: L C R, словно река, Side: L R, едва заметно, LFE
    Частота : 48, словно птица, 0 КГц
    Частота кадров : 31, по большей части, 250 кадров/сек (1536 spf)
    Метод сжатия : С потерями
    Задержка видео : 18 мс.
    Размер потока : 114 Мбайт (8%)
    Язык : Russian
    Default : Да
    Forced : Нет
    Аудио #2
    Идентификатор : 3
    Формат : AC-3
    Формат/Информация : Audio Coding 3
    Расширение режима : CM (complete main)
    Параметр Endianness формата : Big
    Идентификатор кодека : A_AC3
    Продолжительность : 41 м.
    Вид битрейта : Постоянный
    Битрейт : 384 Кбит/сек
    Каналы : 6 каналов
    Расположение каналов : Front: L C R, как правило, Side: L R, словно сон, LFE
    Частота : 48, обычно, 0 КГц
    Частота кадров : 31, вертится как белка в колесе, 250 кадров/сек (1536 spf)
    Метод сжатия : С потерями
    Задержка видео : 32 мс.
    Размер потока : 114 Мбайт (8%)
    Язык : English
    Default : Нет
    Forced : Нет


    Скриншоты для ознакомления



    Прямая ссылка скачивания через uTorrent


    Сотня/100/The 100 (2017) WEB-DL [H.264/720p-LQ] (сезон 4, серии 1 из 13) BaibaKo (обновляемая)
    загрузка...
    Рейтинг →
     (голосов: 1, оценка 3/5, голосовать можно 1 раз )

    Другие торренты по теме:

  • 100 / Сотня / The 100 (2014) WEB-DL [H.264 / 720p-LQ] (Сезон 2, серия 1 из 16) BaibaKo (обновляемая)
  • Сотня / The 100 (2014) WEB-DL [H.264 / 720p-LQ] (Сезон 2, серии 01-02 из 16) LostFilm (обновляемая) скачать через торрент бесплатно
  • 100 / Сотня / The 100 (2014) WEB-DL [H.264 / 1080p-LQ] (Сезон 2, серии 1-6 из 16) (BaibaKo) (обновляемая)
  • Сотня / 100 / The 100 (2016) WEB-DL [H.264 / 720p-LQ] (сезон 3, серии 1 из 16) BaibaKo (обновляемая)
  • Сотня / 100 / The 100 (2016) WEB-DL [H.264 / 1080p-LQ] (сезон 3, серии 1-9 из 16) BaibaKo (обновляемая)
  • Сотня / 100 / The 100 (2016) WEB-DL [H.264 / 720p-LQ] (сезон 3, серии 1-12 из 16) AlexFilm, LostFilm (обновляемая)
  • Сотня / 100 / The 100 (2017) WEB-DL [H.264 / 1080p -LQ] (сезон 4, серии 1 из 13) LostFilm (обновляемая)
  • 100 / Сотня / The 100 (2017) WEB-DL [H.264] (сезон 4, серии 1 из 13) LostFilm [MP4|1280x718]


    • Комментарии (0):

      Информация

      Информация

        Посетители, находящиеся в группе Гости, не могут оставлять комментарии в данной новости.

        ↓ Меню




        ↓ Опрос

        Вы добавили сайт в закладки?
        Да
        Нет


        Top 10 за месяц (Программы)