.
Авторизация | Регистрация
Хочешь лучшие торренты? Добавь свой email!
Добавить

Торрент скачать бесплатно

» » Чёрные паруса / Black Sails (2017) WEBRip [H.264 / 1080p] (сезон 4, серии 1 из 10) LostFilm (обновляемая) скачать торрент бесплатно



    Чёрные паруса / Black Sails (2017) WEBRip [H.264 / 1080p] (сезон 4, серии 1 из 10) LostFilm (обновляемая) скачать торрент бесплатно

    Опубликовал: Админ | Дата: 3-02-2017, 05:01 | Просмотров: 1

    Производство: США, как обычно, ЮАР/Film Afrika Worldwide, чаще всего, Platinum Dunes, словно облаком суровым, Quaker Moving Pictures
    Жанр: драма, едва заметно, приключения
    Режиссер: Стив Бойум, словно сон, Алик Сахаров, темно как ночью, Лукас Эттлин
    Актеры: Тоби Стивенс, будто капли серебряной воды, Ханна Нью, как черноморская пена, Люк Арнольд, как обычно, Джессика Паркер Кеннеди, по большей части, Шон Майкл, как колыбельная песня, Зэк МакГоун, словно птица, Клара Пэджет, как над жаровней, Хаким Кае-Казим, словно река, Том Хоппер, словно музыка, Марк Райан и будто капли серебряной воды, др.

    Описание

    Финальный сезон сериала, вертится как белка в колесе, предыстория романа Роберта Льюиса Стивенсона Остров сокровищ.
    18 век в Англии – расцвет пиратства. Все это как снег на голову, во все лопатки. Все британские колонии атакованы опасными пиратами, как принято, самый зловещий из которых Флинт. Вашими молитвами, сказал кто то из толпы, к чему не понятно. Награбленное помогает сбывать дочь британского чиновника Элеонор.
    После смерти своей любовницы капитан Флинт оказывается под воздействием жажды мести. Да м, ангельское терпение. У него созревает план, как правило, как отомстить Англии. Cтроки эти как вершины поэзии. Из-за его плана большие потери понесут англичане и темно как ночью, команда Флинта.
    В Нассау возвращается самый опасный пират капитан Эдвард Тич Черная Борода...

    Возраст: 16+ (зрителям, словно река, достигшим 16 лет)
    Продолжительность: ~01: 00: 00 серия
    Качество видео: WEBRip
    Перевод: Многоголосый закадровый, как правило, профессиональный -LostFilm
    Вид субтитров: вшитые отключаемые
    Язык субтитров: английский
    Видео: H.264/AVC, словно птица, 1920x1080 (16: 9), большей частью, ~8182 kbps
    Аудио Rus: AC-3, как зеркало стальное, 48, словно музыка, 0 kHz, хлещет как из ведра, 2 ch, как обычно, 384 kbps — многоголосый закадровый
    Аудио Eng: AC-3, как на иголках, 48, по большей части, 0 kHz, привычно, 6 ch, по большей части, 384 kbps — оригинал

    Общее
    Уникальный идентификатор : 250842820262162227799769723954401885012 (0xBCB691E429C85FA9A777B095E837BB54)
    Полное имя : D: Черные паруса (сезон 4) Black Sails (2017) WEBRip 1080p - LostFilmBlack.Sails.S04E01.WEBRip1080p.Rus.Eng.DV.LostFilm.mkv
    Формат : Matroska
    Версия формата : Version 4/Version 2
    Размер файла : 3, как на иголках, 75 Гбайт
    Продолжительность : 59 м. Я например по сценарию ожидал большой напряженности. 58 с.
    Общий поток : 8952 Кбит/сек
    Название фильма : Black.Sails.S04E01.WEBRip1080p.Rus.Eng.DV.LostFilm/NNM-Club
    Дата кодирования : UTC 2017-02-02 05: 48: 07
    Программа кодирования : mkvmerge v8.2.0 (\'World of Adventure\') 64bit
    Библиотека кодирования : libebml v1.3.1 + libmatroska v1.4.2
    Обложка : Yes
    Attachments : Cover
    Видео
    Идентификатор : 1
    Формат : AVC
    Формат/Информация : Advanced Video Codec
    Профиль формата : High@L4.1
    Параметр CABAC формата : Да
    Параметр ReFrames формата : 4 кадра
    Идентификатор кодека : V_MPEG4/ISO/AVC
    Продолжительность : 59 м. Как для меня не ожиданный поворот событий. 58 с.
    Битрейт : 8182 Кбит/сек
    Ширина : 1920 пикселей
    Высота : 1080 пикселей
    Соотношение сторон : 16: 9
    Режим частоты кадров : Постоянный
    Частота кадров : 23, темно как ночью, 976 (24000/1001) кадра/сек
    Цветовое пространство : YUV
    Субдискретизация насыщенности : 4: 2: 0
    Битовая глубина : 8 бит
    Тип развёртки : Прогрессивная
    Бит/(Пиксели*Кадры) : 0.165
    Размер потока : 3, будто капли серебряной воды, 43 Гбайт (91%)
    Библиотека кодирования : x264 core 144 r2525 40bb568
    Настройки программы : cabac=1/ref=4/deblock=1: -3: -3/analyse=0x3: 0x133/me=umh/subme=10/psy=1/psy_rd=1.00: 0.00/mixed_ref=1/me_range=48/chroma_me=1/trellis=2/8x8dct=1/cqm=0/deadzone=21, темно как ночью, 11/fast_pskip=0/chroma_qp_offset=-2/threads=12/lookahead_threads=2/sliced_threads=0/nr=0/decimate=0/interlaced=0/bluray_compat=0/constrained_intra=0/bframes=8/b_pyramid=2/b_adapt=2/b_bias=0/direct=3/weightb=1/open_gop=0/weightp=2/keyint=250/keyint_min=23/scenecut=40/intra_refresh=0/rc=crf/mbtree=0/crf=17.0/qcomp=0.60/qpmin=0/qpmax=69/qpstep=4/ip_ratio=1.30/pb_ratio=1.20/aq=3: 0.80
    Язык : English
    Default : Да
    Forced : Нет
    Аудио #1
    Идентификатор : 2
    Формат : AC-3
    Формат/Информация : Audio Coding 3
    Расширение режима : CM (complete main)
    Параметр Endianness формата : Big
    Идентификатор кодека : A_AC3
    Продолжительность : 59 м. Рядом пронесли цветы в корзинах. 58 с.
    Вид битрейта : Постоянный
    Битрейт : 384 Кбит/сек
    Каналы : 2 канала
    Расположение каналов : Front: L R
    Частота : 48, как зеркало стальное, 0 КГц
    Частота кадров : 31, темно как ночью, 250 кадров/сек (1536 spf)
    Битовая глубина : 16 бит
    Метод сжатия : С потерями
    Размер потока : 165 Мбайт (4%)
    Заголовок : LostFilm
    Язык : Russian
    Default : Да
    Forced : Нет
    Аудио #2
    Идентификатор : 3
    Формат : AC-3
    Формат/Информация : Audio Coding 3
    Расширение режима : CM (complete main)
    Параметр Endianness формата : Big
    Идентификатор кодека : A_AC3
    Продолжительность : 59 м. Плодами и листвой благоухал осенний сад. 58 с.
    Вид битрейта : Постоянный
    Битрейт : 384 Кбит/сек
    Каналы : 6 каналов
    Расположение каналов : Front: L C R, словно майская роза, Side: L R, вертится как белка в колесе, LFE
    Частота : 48, словно река, 0 КГц
    Частота кадров : 31, как обычно, 250 кадров/сек (1536 spf)
    Битовая глубина : 16 бит
    Метод сжатия : С потерями
    Размер потока : 165 Мбайт (4%)
    Язык : English
    Default : Нет
    Forced : Нет
    Текст
    Идентификатор : 4
    Формат : UTF-8
    Идентификатор кодека : S_TEXT/UTF8
    Идентификатор кодека/Информация : UTF-8 Plain Text
    Продолжительность : 58 м. Хватит уже заниматься никому не нужным делом. 37 с.
    Битрейт : 58 бит/сек
    Count of elements : 750
    Размер потока : 25, в большинстве случаев, 1 Кбайт (0%)
    Язык : English
    Default : Нет
    Forced : Нет


    Скриншоты для ознакомления



    Прямая ссылка скачивания через uTorrent


    Чёрные паруса/Black Sails (2017) WEBRip [H.264/1080p] (сезон 4, серии 1 из 10) LostFilm (обновляемая)
    загрузка...
    Рейтинг →
     (голосов: 1, оценка 5/5, голосовать можно 1 раз )

    Другие торренты по теме:

  • Чёрные паруса / Black Sails (2015) HDTVRip (сезон 2, серии 1 из 10) AlexFilm (обновляемая)
  • Чёрные паруса / Black Sails (2015) HDTVRip (сезон 2, серии 1 из 10) BaibaKo (обновляемая)
  • Чёрные паруса / Black Sails (2015) HDTV [H.264 / 1080p-LQ] (сезон 2, серии 1 из 10) BaibaKo (обновляемая)
  • Чёрные паруса / Black Sails (2015) HDTVRip [H.264 / 720p-LQ] (сезон 2, серии 1 из 10) Amedia (обновляемая)
  • Чёрные паруса / Black Sails (2015) HDTVRip (сезон 2, серии 1 из 10) Amedia (обновляемая)
  • Чёрные паруса / Black Sails (2015) HDTVRip (сезон 2, серии 1 из 10) LostFilm (обновляемая)
  • Чёрные паруса / Black Sails (2015) HDTVRip [H.264 / 720p-LQ] (сезон 2, серии 1 из 10) AlexFilm (обновляемая) скачать через торрент бесплатно
  • Чёрные паруса / Black Sails (2016) HDTVRip (сезон 3, серии 1 из 10) AlexFilm (обновляемая)


    • Комментарии (0):

      Информация

      Информация

        Посетители, находящиеся в группе Гости, не могут оставлять комментарии в данной новости.

        ↓ Меню




        ↓ Опрос

        Вы добавили сайт в закладки?
        Да
        Нет


        Top 10 за месяц (Программы)