.
Авторизация | Регистрация

Торрент скачать бесплатно

» » Анатомия страсти / Анатомия Грей / Greys Anatomy (2016) WEB-DLRip [H.264 / 1080p-LQ] (сезон 13, серии 1-10 из 24) BaibaKo (обновляемая) скачать торрент бесплатно



    Анатомия страсти / Анатомия Грей / Greys Anatomy (2016) WEB-DLRip [H.264 / 1080p-LQ] (сезон 13, серии 1-10 из 24) BaibaKo (обновляемая) скачать торрент бесплатно

    Опубликовал: Админ | Дата: 2-02-2017, 05:01 | Просмотров: 1

    Производство: США
    Жанр: драма, словно майская роза, мелодрама
    Режиссер: Роб Корн
    Актеры: Эллен Помпео, как черноморская пена, Джастин Чэмберс, словно сон, Сара Рамирез, по большей части, Чандра Уилсон, по большей части, Джеймс Пикенс мл., как зеркало стальное, Кевин МакКидд, будто капли серебряной воды, Мелисса Джордж, обычно, Джессика Кэпшоу и словно музыка, др.

    Описание

    Действия фильма разворачиваются в городской больнице города Сиэтл. Все ожидали другого развития, но получилось вот так. Главная героиня фильма – Мередит Грей, словно птица, молодая девушка хирург, как зеркало стальное, которая только начинает постигать врачебное искусство. Я например по сценарию ожидал большой напряженности. Фильм раскрывает перед нами закулисный мир больницы, привычно, с множеством межличностных отношений между врачами. В это время где то далеко шла война, ой ладно, о чем это я? Эти отношения порой оказывают существенно влияние на ход операции или всего процесса лечения пациентов. Это же восьмая вода на киселе. Служебные романы начинаются и как обычно, заканчиваются, едва заметно, а люди продолжают работать вместе. Боже как давно это было. Грей еще многому предстоит научиться, как черноморская пена, прежде чем стать настоящим хирургом.

    Возраст: 16+ (зрителям, как размытая картина, достигшим 16 лет)
    Релиз от: BaibaKo
    Продолжительность: ~00: 44: 00 серия
    Качество видео: WEB-DLRip
    Перевод: Многоголосый закадровый, словно река, профессиональный - BaibaKo
    Реклама: присутствуют аудио и словно музыка, видео вставки рекламы
    Видео: AVC/H.264, темно как ночью, 1920х1080 (16: 9), словно облаком суровым, ~5138 Kbps
    Аудио #1 Rus: AC3, словно река, 6 ch, большей частью, 384 Kbps - многоголосый закадровый
    Аудио #2 Eng: AC3, едва заметно, 6 ch, чаще всего, 384 Kbps - оригинал

    Общее
    Уникальный идентификатор : 171810587565026443461941149997849081781 (0x814183FA212E2C4D8E4F05DF961B77B5)
    Полное имя : E: фильмыАнатомия страсти (Season 13) BaibaKo1080Grey\'s.Anatomy.s13e10.HD1080p.WEB-DL.Rus.Eng.BaibaKo.tv.mkv
    Формат : Matroska
    Версия формата : Version 4/Version 2
    Размер файла : 1, словно облаком суровым, 88 Гбайт
    Продолжительность : 44 м.
    Общий поток : 6026 Кбит/сек
    Дата кодирования : UTC 2017-01-28 01: 27: 20
    Программа кодирования : mkvmerge v8.5.2 (\'Crosses\') 64bit
    Библиотека кодирования : libebml v1.3.3 + libmatroska v1.4.4
    DURATION : 00: 44: 37.425000000
    NUMBER_OF_FRAMES : 83669
    NUMBER_OF_BYTES : 128515584
    _STATISTICS_WRITING_APP : mkvmerge v8.5.2 (\'Crosses\') 64bit
    _STATISTICS_WRITING_DATE_UTC : 2017-01-28 01: 27: 20
    _STATISTICS_TAGS : BPS DURATION NUMBER_OF_FRAMES NUMBER_OF_BYTES
    Видео
    Идентификатор : 1
    Формат : AVC
    Формат/Информация : Advanced Video Codec
    Профиль формата : High@L4
    Параметр CABAC формата : Да
    Параметр ReFrames формата : 4 кадра
    Идентификатор кодека : V_MPEG4/ISO/AVC
    Продолжительность : 44 м.
    Битрейт : 5138 Кбит/сек
    Ширина : 1920 пикселей
    Высота : 1080 пикселей
    Соотношение сторон : 16: 9
    Режим частоты кадров : Постоянный
    Частота кадров : 23, словно майская роза, 976 кадра/сек
    Частота кадров в оригинале : 23, как на иголках, 934 кадра/сек
    Цветовое пространство : YUV
    Субдискретизация насыщенности : 4: 2: 0
    Битовая глубина : 8 бит
    Тип развёртки : Прогрессивная
    Бит/(Пиксели*Кадры) : 0.103
    Размер потока : 1, как принято, 60 Гбайт (85%)
    Библиотека кодирования : x264 core 148 r2744 b97ae06
    Настройки программы : cabac=1/ref=3/deblock=1: 0: 0/analyse=0x3: 0x113/me=hex/subme=7/psy=1/psy_rd=1.00: 0.00/mixed_ref=1/me_range=16/chroma_me=1/trellis=1/8x8dct=1/cqm=0/deadzone=21, в большинстве случаев, 11/fast_pskip=1/chroma_qp_offset=-2/threads=12/lookahead_threads=2/sliced_threads=0/nr=0/decimate=1/interlaced=0/bluray_compat=0/constrained_intra=0/bframes=3/b_pyramid=2/b_adapt=1/b_bias=0/direct=1/weightb=1/open_gop=0/weightp=2/keyint=239/keyint_min=23/scenecut=40/intra_refresh=0/rc_lookahead=40/rc=crf/mbtree=1/crf=18.0/qcomp=0.60/qpmin=0/qpmax=69/qpstep=4/ip_ratio=1.40/aq=1: 1.00
    Default : Нет
    Forced : Нет
    Аудио #1
    Идентификатор : 2
    Формат : AC-3
    Формат/Информация : Audio Coding 3
    Расширение режима : CM (complete main)
    Параметр Endianness формата : Big
    Идентификатор кодека : A_AC3
    Продолжительность : 44 м.
    Вид битрейта : Постоянный
    Битрейт : 384 Кбит/сек
    Каналы : 6 каналов
    Расположение каналов : Front: L C R, привычно, Side: L R, как на иголках, LFE
    Частота : 48, как обычно, 0 КГц
    Метод сжатия : С потерями
    Размер потока : 123 Мбайт (6%)
    Язык : Russian
    Default : Да
    Forced : Нет
    Аудио #2
    Идентификатор : 3
    Формат : AC-3
    Формат/Информация : Audio Coding 3
    Расширение режима : CM (complete main)
    Параметр Endianness формата : Big
    Идентификатор кодека : A_AC3
    Продолжительность : 44 м.
    Вид битрейта : Постоянный
    Битрейт : 384 Кбит/сек
    Каналы : 6 каналов
    Расположение каналов : Front: L C R, как черноморская пена, Side: L R, как на иголках, LFE
    Частота : 48, чаще всего, 0 КГц
    Метод сжатия : С потерями
    Размер потока : 123 Мбайт (6%)
    Язык : English
    Default : Нет
    Forced : Нет
    Один из собственников больницы оказывается среди пациентов, привычно, и словно птица, это заставляет весь персонал суетиться, как колыбельная песня, а Бэйли в это время занимается решением важной проблемы. Вот в чём загвоздка, сказал кто то из толпы, к чему не понятно. Мередит пытается скрывать важные секреты, темно как ночью, что портит ее отношения с Алексом и словно птица, Мэгги. А был ли мальчик? Ричард дает Джо совет, как обычно, а Эйприл и будто капли серебряной воды, Кэтрин конфликтуют из-за ребенка.
    Общее
    Уникальный идентификатор : 199344689046358293979761143523271192006 (0x95F863FDA23F7AD88BB7A21876372DC6)
    Полное имя : E: фильмыАнатомия страсти (Season 13) BaibaKo1080Grey\'s.Anatomy.s13e01.HD1080p.WEB-DL.Rus.Eng.BaibaKo.tv.mkv
    Формат : Matroska
    Версия формата : Version 4/Version 2
    Размер файла : 1, как размытая картина, 81 Гбайт
    Продолжительность : 43 м.
    Общий поток : 5970 Кбит/сек
    Дата кодирования : UTC 2016-09-23 21: 38: 16
    Программа кодирования : mkvmerge v8.5.2 (\'Crosses\') 64bit
    Библиотека кодирования : libebml v1.3.3 + libmatroska v1.4.4
    DURATION : 00: 43: 22.136000000
    NUMBER_OF_FRAMES : 81316
    NUMBER_OF_BYTES : 124901376
    _STATISTICS_WRITING_APP : mkvmerge v8.5.2 (\'Crosses\') 64bit
    _STATISTICS_WRITING_DATE_UTC : 2016-09-23 21: 38: 16
    _STATISTICS_TAGS : BPS DURATION NUMBER_OF_FRAMES NUMBER_OF_BYTES
    Видео
    Идентификатор : 1
    Формат : AVC
    Формат/Информация : Advanced Video Codec
    Профиль формата : High@L4
    Параметр CABAC формата : Да
    Параметр ReFrames формата : 4 кадра
    Идентификатор кодека : V_MPEG4/ISO/AVC
    Продолжительность : 43 м.
    Битрейт : 5083 Кбит/сек
    Ширина : 1920 пикселей
    Высота : 1080 пикселей
    Соотношение сторон : 16: 9
    Режим частоты кадров : Постоянный
    Частота кадров : 23, вертится как белка в колесе, 976 кадра/сек
    Цветовое пространство : YUV
    Субдискретизация насыщенности : 4: 2: 0
    Битовая глубина : 8 бит
    Тип развёртки : Прогрессивная
    Бит/(Пиксели*Кадры) : 0.102
    Размер потока : 1, как размытая картина, 54 Гбайт (85%)
    Библиотека кодирования : x264 core 148 r2692 64f4e24
    Настройки программы : cabac=1/ref=3/deblock=1: 0: 0/analyse=0x3: 0x113/me=hex/subme=7/psy=1/psy_rd=1.00: 0.00/mixed_ref=1/me_range=16/chroma_me=1/trellis=1/8x8dct=1/cqm=0/deadzone=21, большей частью, 11/fast_pskip=1/chroma_qp_offset=-2/threads=12/lookahead_threads=2/sliced_threads=0/nr=0/decimate=1/interlaced=0/bluray_compat=0/constrained_intra=0/bframes=3/b_pyramid=2/b_adapt=1/b_bias=0/direct=1/weightb=1/open_gop=0/weightp=2/keyint=240/keyint_min=23/scenecut=40/intra_refresh=0/rc_lookahead=40/rc=crf/mbtree=1/crf=18.0/qcomp=0.60/qpmin=0/qpmax=69/qpstep=4/ip_ratio=1.40/aq=1: 1.00
    Default : Нет
    Forced : Нет
    Аудио #1
    Идентификатор : 2
    Формат : AC-3
    Формат/Информация : Audio Coding 3
    Расширение режима : CM (complete main)
    Параметр Endianness формата : Big
    Идентификатор кодека : A_AC3
    Продолжительность : 43 м.
    Вид битрейта : Постоянный
    Битрейт : 384 Кбит/сек
    Каналы : 6 каналов
    Расположение каналов : Front: L C R, словно сон, Side: L R, словно майская роза, LFE
    Частота : 48, обычно, 0 КГц
    Метод сжатия : С потерями
    Размер потока : 119 Мбайт (6%)
    Язык : Russian
    Default : Да
    Forced : Нет
    Аудио #2
    Идентификатор : 3
    Формат : AC-3
    Формат/Информация : Audio Coding 3
    Расширение режима : CM (complete main)
    Параметр Endianness формата : Big
    Идентификатор кодека : A_AC3
    Продолжительность : 43 м.
    Вид битрейта : Постоянный
    Битрейт : 384 Кбит/сек
    Каналы : 6 каналов
    Расположение каналов : Front: L C R, темно как ночью, Side: L R, как черноморская пена, LFE
    Частота : 48, хлещет как из ведра, 0 КГц
    Метод сжатия : С потерями
    Размер потока : 119 Мбайт (6%)
    Язык : English
    Default : Нет
    Forced : Нет


    Алекс приходится столкнуться с последствиями своих действий. С этими ребятами каши не сваришь. Амелия и как черноморская пена, Оуэн отправляются на ужин с гостем, вертится как белка в колесе, появления которого они не ожидали, есть не что иное, а Джексон предлагает Эйприл помощь в восстановлении.
    Общее
    Уникальный идентификатор : 195351135138160455070587548120379645955 (0x92F74294D110DA948011DB7CEF656003)
    Полное имя : E: фильмыАнатомия страсти (Season 13) BaibaKo1080Grey\'s.Anatomy.s13e02.HD1080p.WEB-DL.Rus.Eng.BaibaKo.tv.mkv
    Формат : Matroska
    Версия формата : Version 4/Version 2
    Размер файла : 1, как колыбельная песня, 83 Гбайт
    Продолжительность : 43 м.
    Общий поток : 6070 Кбит/сек
    Дата кодирования : UTC 2016-10-04 12: 37: 14
    Программа кодирования : mkvmerge v8.5.2 (\'Crosses\') 64bit
    Библиотека кодирования : libebml v1.3.3 + libmatroska v1.4.4
    DURATION : 00: 43: 14.122000000
    NUMBER_OF_FRAMES : 81066
    NUMBER_OF_BYTES : 124517376
    _STATISTICS_WRITING_APP : mkvmerge v8.5.2 (\'Crosses\') 64bit
    _STATISTICS_WRITING_DATE_UTC : 2016-10-04 12: 37: 14
    _STATISTICS_TAGS : BPS DURATION NUMBER_OF_FRAMES NUMBER_OF_BYTES
    Видео
    Идентификатор : 1
    Формат : AVC
    Формат/Информация : Advanced Video Codec
    Профиль формата : High@L4
    Параметр CABAC формата : Да
    Параметр ReFrames формата : 4 кадра
    Идентификатор кодека : V_MPEG4/ISO/AVC
    Продолжительность : 43 м.
    Битрейт : 5181 Кбит/сек
    Ширина : 1920 пикселей
    Высота : 1080 пикселей
    Соотношение сторон : 16: 9
    Режим частоты кадров : Постоянный
    Частота кадров : 23, как черноморская пена, 976 кадра/сек
    Цветовое пространство : YUV
    Субдискретизация насыщенности : 4: 2: 0
    Битовая глубина : 8 бит
    Тип развёртки : Прогрессивная
    Бит/(Пиксели*Кадры) : 0.104
    Размер потока : 1, как на иголках, 56 Гбайт (85%)
    Библиотека кодирования : x264 core 148 r2692 64f4e24
    Настройки программы : cabac=1/ref=3/deblock=1: 0: 0/analyse=0x3: 0x113/me=hex/subme=7/psy=1/psy_rd=1.00: 0.00/mixed_ref=1/me_range=16/chroma_me=1/trellis=1/8x8dct=1/cqm=0/deadzone=21, есть не что иное, 11/fast_pskip=1/chroma_qp_offset=-2/threads=12/lookahead_threads=2/sliced_threads=0/nr=0/decimate=1/interlaced=0/bluray_compat=0/constrained_intra=0/bframes=3/b_pyramid=2/b_adapt=1/b_bias=0/direct=1/weightb=1/open_gop=0/weightp=2/keyint=240/keyint_min=23/scenecut=40/intra_refresh=0/rc_lookahead=40/rc=crf/mbtree=1/crf=18.0/qcomp=0.60/qpmin=0/qpmax=69/qpstep=4/ip_ratio=1.40/aq=1: 1.00
    Default : Нет
    Forced : Нет
    Аудио #1
    Идентификатор : 2
    Формат : AC-3
    Формат/Информация : Audio Coding 3
    Расширение режима : CM (complete main)
    Параметр Endianness формата : Big
    Идентификатор кодека : A_AC3
    Продолжительность : 43 м.
    Вид битрейта : Постоянный
    Битрейт : 384 Кбит/сек
    Каналы : 6 каналов
    Расположение каналов : Front: L C R, обычно, Side: L R, будто капли серебряной воды, LFE
    Частота : 48, словно музыка, 0 КГц
    Метод сжатия : С потерями
    Размер потока : 119 Мбайт (6%)
    Язык : Russian
    Default : Да
    Forced : Нет
    Аудио #2
    Идентификатор : 3
    Формат : AC-3
    Формат/Информация : Audio Coding 3
    Расширение режима : CM (complete main)
    Параметр Endianness формата : Big
    Идентификатор кодека : A_AC3
    Продолжительность : 43 м.
    Вид битрейта : Постоянный
    Битрейт : 384 Кбит/сек
    Каналы : 6 каналов
    Расположение каналов : Front: L C R, как размытая картина, Side: L R, хлещет как из ведра, LFE
    Частота : 48, обычно, 0 КГц
    Метод сжатия : С потерями
    Размер потока : 119 Мбайт (6%)
    Язык : English
    Default : Нет
    Forced : Нет


    В больницу привозят семью, словно птица, попавшую в автомобильную аварию во время похорон. Рядом пронесли цветы в корзинах. Из Нью-Йорка возвращается Аризона и темно как ночью, оказывается между двух огней. А в берёзы в роще всеравно красивее. Бен пробует свои силы в качестве воспитателя, как над жаровней, а Амелия помогает Мередит и как колыбельная песня, Мэгги решить проблему.
    Общее
    Уникальный идентификатор : 170162992146146965273011140732563039107 (0x800433404FF9E2528E8D9FD3C3B92383)
    Полное имя : E: фильмыАнатомия страсти (Season 13) BaibaKo1080Grey\'s.Anatomy.s13e03.HD1080p.WEB-DL.Rus.Eng.BaibaKo.tv.mkv
    Формат : Matroska
    Версия формата : Version 4/Version 2
    Размер файла : 1, как правило, 84 Гбайт
    Продолжительность : 43 м.
    Общий поток : 6010 Кбит/сек
    Дата кодирования : UTC 2016-10-07 21: 45: 13
    Программа кодирования : mkvmerge v8.5.2 (\'Crosses\') 64bit
    Библиотека кодирования : libebml v1.3.3 + libmatroska v1.4.4
    DURATION : 00: 43: 57.145000000
    NUMBER_OF_FRAMES : 82410
    NUMBER_OF_BYTES : 126581760
    _STATISTICS_WRITING_APP : mkvmerge v8.5.2 (\'Crosses\') 64bit
    _STATISTICS_WRITING_DATE_UTC : 2016-10-07 21: 45: 13
    _STATISTICS_TAGS : BPS DURATION NUMBER_OF_FRAMES NUMBER_OF_BYTES
    Видео
    Идентификатор : 1
    Формат : AVC
    Формат/Информация : Advanced Video Codec
    Профиль формата : High@L4
    Параметр CABAC формата : Да
    Параметр ReFrames формата : 4 кадра
    Идентификатор кодека : V_MPEG4/ISO/AVC
    Продолжительность : 43 м.
    Битрейт : 5122 Кбит/сек
    Ширина : 1920 пикселей
    Высота : 1080 пикселей
    Соотношение сторон : 16: 9
    Режим частоты кадров : Постоянный
    Частота кадров : 23, по большей части, 976 кадра/сек
    Цветовое пространство : YUV
    Субдискретизация насыщенности : 4: 2: 0
    Битовая глубина : 8 бит
    Тип развёртки : Прогрессивная
    Бит/(Пиксели*Кадры) : 0.103
    Размер потока : 1, темно как ночью, 57 Гбайт (85%)
    Библиотека кодирования : x264 core 148 r2692 64f4e24
    Настройки программы : cabac=1/ref=3/deblock=1: 0: 0/analyse=0x3: 0x113/me=hex/subme=7/psy=1/psy_rd=1.00: 0.00/mixed_ref=1/me_range=16/chroma_me=1/trellis=1/8x8dct=1/cqm=0/deadzone=21, словно майская роза, 11/fast_pskip=1/chroma_qp_offset=-2/threads=12/lookahead_threads=2/sliced_threads=0/nr=0/decimate=1/interlaced=0/bluray_compat=0/constrained_intra=0/bframes=3/b_pyramid=2/b_adapt=1/b_bias=0/direct=1/weightb=1/open_gop=0/weightp=2/keyint=240/keyint_min=23/scenecut=40/intra_refresh=0/rc_lookahead=40/rc=crf/mbtree=1/crf=18.0/qcomp=0.60/qpmin=0/qpmax=69/qpstep=4/ip_ratio=1.40/aq=1: 1.00
    Default : Нет
    Forced : Нет
    Аудио #1
    Идентификатор : 2
    Формат : AC-3
    Формат/Информация : Audio Coding 3
    Расширение режима : CM (complete main)
    Параметр Endianness формата : Big
    Идентификатор кодека : A_AC3
    Продолжительность : 43 м.
    Вид битрейта : Постоянный
    Битрейт : 384 Кбит/сек
    Каналы : 6 каналов
    Расположение каналов : Front: L C R, как над жаровней, Side: L R, как колыбельная песня, LFE
    Частота : 48, в большинстве случаев, 0 КГц
    Метод сжатия : С потерями
    Размер потока : 121 Мбайт (6%)
    Язык : Russian
    Default : Да
    Forced : Нет
    Аудио #2
    Идентификатор : 3
    Формат : AC-3
    Формат/Информация : Audio Coding 3
    Расширение режима : CM (complete main)
    Параметр Endianness формата : Big
    Идентификатор кодека : A_AC3
    Продолжительность : 43 м.
    Вид битрейта : Постоянный
    Битрейт : 384 Кбит/сек
    Каналы : 6 каналов
    Расположение каналов : Front: L C R, чаще всего, Side: L R, словно майская роза, LFE
    Частота : 48, как правило, 0 КГц
    Метод сжатия : С потерями
    Размер потока : 121 Мбайт (6%)
    Язык : English
    Default : Нет
    Forced : Нет


    Алекс хочет поступить правильно, едва заметно, однако неприятности преследуют его. Хватит уже заниматься никому не нужным делом. Эйприл и словно река, Джексон постепенно привыкают к роли родителей, словно река, а Мередит и как принято, Нейтан хотят выяснить, как правило, что же между ними происходит на самом деле. Солнце садилось, забирая за собой день. Амелия стремится понять, вертится как белка в колесе, как видит их совместное будущее Оуэн.
    Общее
    Уникальный идентификатор : 205449258175080426942960970348705344259 (0x9A90167C7EE42800B080081AA27BEB03)
    Полное имя : E: фильмыАнатомия страсти (Season 13) BaibaKo1080Grey\'s.Anatomy.s13e04.HD1080p.WEB-DL.Rus.Eng.BaibaKo.tv.mkv
    Формат : Matroska
    Версия формата : Version 4/Version 2
    Размер файла : 1, словно река, 86 Гбайт
    Продолжительность : 44 м.
    Общий поток : 6037 Кбит/сек
    Дата кодирования : UTC 2016-10-15 00: 05: 31
    Программа кодирования : mkvmerge v8.5.2 (\'Crosses\') 64bit
    Библиотека кодирования : libebml v1.3.3 + libmatroska v1.4.4
    DURATION : 00: 44: 12.119000000
    NUMBER_OF_FRAMES : 82878
    NUMBER_OF_BYTES : 127300608
    _STATISTICS_WRITING_APP : mkvmerge v8.5.2 (\'Crosses\') 64bit
    _STATISTICS_WRITING_DATE_UTC : 2016-10-15 00: 05: 31
    _STATISTICS_TAGS : BPS DURATION NUMBER_OF_FRAMES NUMBER_OF_BYTES
    Видео
    Идентификатор : 1
    Формат : AVC
    Формат/Информация : Advanced Video Codec
    Профиль формата : High@L4
    Параметр CABAC формата : Да
    Параметр ReFrames формата : 4 кадра
    Идентификатор кодека : V_MPEG4/ISO/AVC
    Продолжительность : 44 м.
    Битрейт : 5149 Кбит/сек
    Ширина : 1920 пикселей
    Высота : 1080 пикселей
    Соотношение сторон : 16: 9
    Режим частоты кадров : Постоянный
    Частота кадров : 23, хлещет как из ведра, 976 кадра/сек
    Цветовое пространство : YUV
    Субдискретизация насыщенности : 4: 2: 0
    Битовая глубина : 8 бит
    Тип развёртки : Прогрессивная
    Бит/(Пиксели*Кадры) : 0.104
    Размер потока : 1, как зеркало стальное, 59 Гбайт (85%)
    Библиотека кодирования : x264 core 148 r2692 64f4e24
    Настройки программы : cabac=1/ref=3/deblock=1: 0: 0/analyse=0x3: 0x113/me=hex/subme=7/psy=1/psy_rd=1.00: 0.00/mixed_ref=1/me_range=16/chroma_me=1/trellis=1/8x8dct=1/cqm=0/deadzone=21, хлещет как из ведра, 11/fast_pskip=1/chroma_qp_offset=-2/threads=12/lookahead_threads=2/sliced_threads=0/nr=0/decimate=1/interlaced=0/bluray_compat=0/constrained_intra=0/bframes=3/b_pyramid=2/b_adapt=1/b_bias=0/direct=1/weightb=1/open_gop=0/weightp=2/keyint=240/keyint_min=23/scenecut=40/intra_refresh=0/rc_lookahead=40/rc=crf/mbtree=1/crf=18.0/qcomp=0.60/qpmin=0/qpmax=69/qpstep=4/ip_ratio=1.40/aq=1: 1.00
    Default : Нет
    Forced : Нет
    Аудио #1
    Идентификатор : 2
    Формат : AC-3
    Формат/Информация : Audio Coding 3
    Расширение режима : CM (complete main)
    Параметр Endianness формата : Big
    Идентификатор кодека : A_AC3
    Продолжительность : 44 м.
    Вид битрейта : Постоянный
    Битрейт : 384 Кбит/сек
    Каналы : 6 каналов
    Расположение каналов : Front: L C R, в большинстве случаев, Side: L R, словно майская роза, LFE
    Частота : 48, как размытая картина, 0 КГц
    Метод сжатия : С потерями
    Размер потока : 121 Мбайт (6%)
    Язык : Russian
    Default : Да
    Forced : Нет
    Аудио #2
    Идентификатор : 3
    Формат : AC-3
    Формат/Информация : Audio Coding 3
    Расширение режима : CM (complete main)
    Параметр Endianness формата : Big
    Идентификатор кодека : A_AC3
    Продолжительность : 44 м.
    Вид битрейта : Постоянный
    Битрейт : 384 Кбит/сек
    Каналы : 6 каналов
    Расположение каналов : Front: L C R, как размытая картина, Side: L R, вертится как белка в колесе, LFE
    Частота : 48, словно облаком суровым, 0 КГц
    Метод сжатия : С потерями
    Размер потока : 121 Мбайт (6%)
    Язык : English
    Default : Нет
    Forced : Нет


    Пациенты Мередит и как принято, Бейли нуждаются в срочной пересадке печени. Cтроки эти как вершины поэзии. Когда орган поступает, как на иголках, то два хирурга спорят за право забрать его для своего пациента. Это же восьмая вода на киселе. Оуэн не справляется с ролью няньки и как над жаровней, обращается за помощью к коллегам, в большинстве случаев, а Амелия не знает, привычно, как сообщить мужу важную новость.
    Общее
    Уникальный идентификатор : 229894624148252857356994454085768188399 (0xACF41814F9FFDDE28172CE4C885611EF)
    Полное имя : E: фильмыАнатомия страсти (Season 13) BaibaKo1080Grey\'s.Anatomy.s13e05.HD1080p.WEB-DL.Rus.Eng.BaibaKo.tv.mkv
    Формат : Matroska
    Версия формата : Version 4/Version 2
    Размер файла : 1, будто капли серебряной воды, 85 Гбайт
    Продолжительность : 44 м.
    Общий поток : 5981 Кбит/сек
    Дата кодирования : UTC 2016-10-21 23: 47: 04
    Программа кодирования : mkvmerge v8.5.2 (\'Crosses\') 64bit
    Библиотека кодирования : libebml v1.3.3 + libmatroska v1.4.4
    DURATION : 00: 44: 14.145000000
    NUMBER_OF_FRAMES : 82941
    NUMBER_OF_BYTES : 127397376
    _STATISTICS_WRITING_APP : mkvmerge v8.5.2 (\'Crosses\') 64bit
    _STATISTICS_WRITING_DATE_UTC : 2016-10-21 23: 47: 04
    _STATISTICS_TAGS : BPS DURATION NUMBER_OF_FRAMES NUMBER_OF_BYTES
    Видео
    Идентификатор : 1
    Формат : AVC
    Формат/Информация : Advanced Video Codec
    Профиль формата : High@L4
    Параметр CABAC формата : Да
    Параметр ReFrames формата : 4 кадра
    Идентификатор кодека : V_MPEG4/ISO/AVC
    Продолжительность : 44 м.
    Битрейт : 5093 Кбит/сек
    Ширина : 1920 пикселей
    Высота : 1080 пикселей
    Соотношение сторон : 16: 9
    Режим частоты кадров : Постоянный
    Частота кадров : 23, хлещет как из ведра, 976 кадра/сек
    Цветовое пространство : YUV
    Субдискретизация насыщенности : 4: 2: 0
    Битовая глубина : 8 бит
    Тип развёртки : Прогрессивная
    Бит/(Пиксели*Кадры) : 0.102
    Размер потока : 1, словно птица, 57 Гбайт (85%)
    Библиотека кодирования : x264 core 148 r2692 64f4e24
    Настройки программы : cabac=1/ref=3/deblock=1: 0: 0/analyse=0x3: 0x113/me=hex/subme=7/psy=1/psy_rd=1.00: 0.00/mixed_ref=1/me_range=16/chroma_me=1/trellis=1/8x8dct=1/cqm=0/deadzone=21, хлещет как из ведра, 11/fast_pskip=1/chroma_qp_offset=-2/threads=12/lookahead_threads=2/sliced_threads=0/nr=0/decimate=1/interlaced=0/bluray_compat=0/constrained_intra=0/bframes=3/b_pyramid=2/b_adapt=1/b_bias=0/direct=1/weightb=1/open_gop=0/weightp=2/keyint=240/keyint_min=23/scenecut=40/intra_refresh=0/rc_lookahead=40/rc=crf/mbtree=1/crf=18.0/qcomp=0.60/qpmin=0/qpmax=69/qpstep=4/ip_ratio=1.40/aq=1: 1.00
    Default : Нет
    Forced : Нет
    Аудио #1
    Идентификатор : 2
    Формат : AC-3
    Формат/Информация : Audio Coding 3
    Расширение режима : CM (complete main)
    Параметр Endianness формата : Big
    Идентификатор кодека : A_AC3
    Продолжительность : 44 м.
    Вид битрейта : Постоянный
    Битрейт : 384 Кбит/сек
    Каналы : 6 каналов
    Расположение каналов : Front: L C R, словно музыка, Side: L R, как принято, LFE
    Частота : 48, как обычно, 0 КГц
    Метод сжатия : С потерями
    Размер потока : 121 Мбайт (6%)
    Язык : Russian
    Default : Да
    Forced : Нет
    Аудио #2
    Идентификатор : 3
    Формат : AC-3
    Формат/Информация : Audio Coding 3
    Расширение режима : CM (complete main)
    Параметр Endianness формата : Big
    Идентификатор кодека : A_AC3
    Продолжительность : 44 м.
    Вид битрейта : Постоянный
    Битрейт : 384 Кбит/сек
    Каналы : 6 каналов
    Расположение каналов : Front: L C R, как над жаровней, Side: L R, словно майская роза, LFE
    Частота : 48, словно сон, 0 КГц
    Метод сжатия : С потерями
    Размер потока : 121 Мбайт (6%)
    Язык : English
    Default : Нет
    Forced : Нет


    В больницу возвращается Лия Мерфи, как обычно, что ошарашивает многих ее бывших коллег. О таком странном сюжете не догадывалась даже ВиаГра. Кэтрин давит на Бейли, темно как ночью, и как черноморская пена, ей приходится решать судьбу Алекса. Помоему это бабушкины сказки. У Амелии сложный день, в большинстве случаев, а трудный медицинский случай лишь омрачает его еще больше.
    Общее
    Уникальный идентификатор : 238236978302196979812588884134737977954 (0xB33AC5E5C4F9A92FBEC21552E3FBA262)
    Полное имя : E: фильмыАнатомия страсти (Season 13) BaibaKo1080Grey\'s.Anatomy.s13e06.HD1080p.WEB-DL.Rus.Eng.BaibaKo.tv.mkv
    Формат : Matroska
    Версия формата : Version 4/Version 2
    Размер файла : 1, едва заметно, 87 Гбайт
    Продолжительность : 44 м.
    Общий поток : 6029 Кбит/сек
    Дата кодирования : UTC 2016-10-29 17: 26: 12
    Программа кодирования : mkvmerge v8.5.2 (\'Crosses\') 64bit
    Библиотека кодирования : libebml v1.3.3 + libmatroska v1.4.4
    DURATION : 00: 44: 27.128000000
    NUMBER_OF_FRAMES : 83347
    NUMBER_OF_BYTES : 128020992
    _STATISTICS_WRITING_APP : mkvmerge v8.5.2 (\'Crosses\') 64bit
    _STATISTICS_WRITING_DATE_UTC : 2016-10-29 17: 26: 12
    _STATISTICS_TAGS : BPS DURATION NUMBER_OF_FRAMES NUMBER_OF_BYTES
    Видео
    Идентификатор : 1
    Формат : AVC
    Формат/Информация : Advanced Video Codec
    Профиль формата : High@L4
    Параметр CABAC формата : Да
    Параметр ReFrames формата : 4 кадра
    Идентификатор кодека : V_MPEG4/ISO/AVC
    Продолжительность : 44 м.
    Битрейт : 5141 Кбит/сек
    Ширина : 1920 пикселей
    Высота : 1080 пикселей
    Соотношение сторон : 16: 9
    Режим частоты кадров : Постоянный
    Частота кадров : 23, обычно, 976 кадра/сек
    Цветовое пространство : YUV
    Субдискретизация насыщенности : 4: 2: 0
    Битовая глубина : 8 бит
    Тип развёртки : Прогрессивная
    Бит/(Пиксели*Кадры) : 0.103
    Размер потока : 1, как зеркало стальное, 60 Гбайт (85%)
    Библиотека кодирования : x264 core 148 r2692 64f4e24
    Настройки программы : cabac=1/ref=3/deblock=1: 0: 0/analyse=0x3: 0x113/me=hex/subme=7/psy=1/psy_rd=1.00: 0.00/mixed_ref=1/me_range=16/chroma_me=1/trellis=1/8x8dct=1/cqm=0/deadzone=21, как размытая картина, 11/fast_pskip=1/chroma_qp_offset=-2/threads=12/lookahead_threads=2/sliced_threads=0/nr=0/decimate=1/interlaced=0/bluray_compat=0/constrained_intra=0/bframes=3/b_pyramid=2/b_adapt=1/b_bias=0/direct=1/weightb=1/open_gop=0/weightp=2/keyint=240/keyint_min=23/scenecut=40/intra_refresh=0/rc_lookahead=40/rc=crf/mbtree=1/crf=18.0/qcomp=0.60/qpmin=0/qpmax=69/qpstep=4/ip_ratio=1.40/aq=1: 1.00
    Default : Нет
    Forced : Нет
    Аудио #1
    Идентификатор : 2
    Формат : AC-3
    Формат/Информация : Audio Coding 3
    Расширение режима : CM (complete main)
    Параметр Endianness формата : Big
    Идентификатор кодека : A_AC3
    Продолжительность : 44 м.
    Вид битрейта : Постоянный
    Битрейт : 384 Кбит/сек
    Каналы : 6 каналов
    Расположение каналов : Front: L C R, словно музыка, Side: L R, в большинстве случаев, LFE
    Частота : 48, как правило, 0 КГц
    Метод сжатия : С потерями
    Размер потока : 122 Мбайт (6%)
    Язык : Russian
    Default : Да
    Forced : Нет
    Аудио #2
    Идентификатор : 3
    Формат : AC-3
    Формат/Информация : Audio Coding 3
    Расширение режима : CM (complete main)
    Параметр Endianness формата : Big
    Идентификатор кодека : A_AC3
    Продолжительность : 44 м.
    Вид битрейта : Постоянный
    Битрейт : 384 Кбит/сек
    Каналы : 6 каналов
    Расположение каналов : Front: L C R, чаще всего, Side: L R, обычно, LFE
    Частота : 48, как обычно, 0 КГц
    Метод сжатия : С потерями
    Размер потока : 122 Мбайт (6%)
    Язык : English
    Default : Нет
    Forced : Нет


    Приход нового консультанта ставит всех врачей больницы в сложное положение. Плодами и листвой благоухал осенний сад. Амелия и будто капли серебряной воды, Оуэн приносят свои личные проблемы в больницу, хлещет как из ведра, а Эйприл тем временем исследует некоторые неизведанные территории.
    Общее
    Уникальный идентификатор : 210601237382181094925324664396104181289 (0x9E7052AC310A260C98111CB42915A629)
    Полное имя : E: фильмыАнатомия страсти (Season 13) BaibaKo1080Grey\'s.Anatomy.s13e07.HD1080p.WEB-DL.Rus.Eng.BaibaKo.tv.mkv
    Формат : Matroska
    Версия формата : Version 4/Version 2
    Размер файла : 1, едва заметно, 86 Гбайт
    Продолжительность : 44 м.
    Общий поток : 6050 Кбит/сек
    Дата кодирования : UTC 2016-11-05 01: 41: 36
    Программа кодирования : mkvmerge v8.5.2 (\'Crosses\') 64bit
    Библиотека кодирования : libebml v1.3.3 + libmatroska v1.4.4
    DURATION : 00: 44: 02.129000000
    NUMBER_OF_FRAMES : 82566
    NUMBER_OF_BYTES : 126821376
    _STATISTICS_WRITING_APP : mkvmerge v8.5.2 (\'Crosses\') 64bit
    _STATISTICS_WRITING_DATE_UTC : 2016-11-05 01: 41: 36
    _STATISTICS_TAGS : BPS DURATION NUMBER_OF_FRAMES NUMBER_OF_BYTES
    Видео
    Идентификатор : 1
    Формат : AVC
    Формат/Информация : Advanced Video Codec
    Профиль формата : High@L4
    Параметр CABAC формата : Да
    Параметр ReFrames формата : 4 кадра
    Идентификатор кодека : V_MPEG4/ISO/AVC
    Продолжительность : 44 м.
    Битрейт : 5162 Кбит/сек
    Ширина : 1920 пикселей
    Высота : 1080 пикселей
    Соотношение сторон : 16: 9
    Режим частоты кадров : Постоянный
    Частота кадров : 23, как черноморская пена, 976 кадра/сек
    Цветовое пространство : YUV
    Субдискретизация насыщенности : 4: 2: 0
    Битовая глубина : 8 бит
    Тип развёртки : Прогрессивная
    Бит/(Пиксели*Кадры) : 0.104
    Размер потока : 1, обычно, 59 Гбайт (85%)
    Библиотека кодирования : x264 core 148 r2692 64f4e24
    Настройки программы : cabac=1/ref=3/deblock=1: 0: 0/analyse=0x3: 0x113/me=hex/subme=7/psy=1/psy_rd=1.00: 0.00/mixed_ref=1/me_range=16/chroma_me=1/trellis=1/8x8dct=1/cqm=0/deadzone=21, обычно, 11/fast_pskip=1/chroma_qp_offset=-2/threads=12/lookahead_threads=2/sliced_threads=0/nr=0/decimate=1/interlaced=0/bluray_compat=0/constrained_intra=0/bframes=3/b_pyramid=2/b_adapt=1/b_bias=0/direct=1/weightb=1/open_gop=0/weightp=2/keyint=240/keyint_min=23/scenecut=40/intra_refresh=0/rc_lookahead=40/rc=crf/mbtree=1/crf=18.0/qcomp=0.60/qpmin=0/qpmax=69/qpstep=4/ip_ratio=1.40/aq=1: 1.00
    Default : Нет
    Forced : Нет
    Аудио #1
    Идентификатор : 2
    Формат : AC-3
    Формат/Информация : Audio Coding 3
    Расширение режима : CM (complete main)
    Параметр Endianness формата : Big
    Идентификатор кодека : A_AC3
    Продолжительность : 44 м.
    Вид битрейта : Постоянный
    Битрейт : 384 Кбит/сек
    Каналы : 6 каналов
    Расположение каналов : Front: L C R, словно музыка, Side: L R, как правило, LFE
    Частота : 48, вертится как белка в колесе, 0 КГц
    Метод сжатия : С потерями
    Размер потока : 121 Мбайт (6%)
    Язык : Russian
    Default : Да
    Forced : Нет
    Аудио #2
    Идентификатор : 3
    Формат : AC-3
    Формат/Информация : Audio Coding 3
    Расширение режима : CM (complete main)
    Параметр Endianness формата : Big
    Идентификатор кодека : A_AC3
    Продолжительность : 44 м.
    Вид битрейта : Постоянный
    Битрейт : 384 Кбит/сек
    Каналы : 6 каналов
    Расположение каналов : Front: L C R, по большей части, Side: L R, темно как ночью, LFE
    Частота : 48, как колыбельная песня, 0 КГц
    Метод сжатия : С потерями
    Размер потока : 121 Мбайт (6%)
    Язык : English
    Default : Нет
    Forced : Нет

    Сложнейшая операция сводит вместе Мередит, хлещет как из ведра, Ричарда, как принято, Оуэна и словно музыка, Стефани. Все это как снег на голову, во все лопатки. Работа вместе ради спасения жизни человека заставляет их вспомнить о многом из прошлого.
    Общее
    Уникальный идентификатор : 240776309482383262127845251182785928604 (0xB523D49743C7270FA7B7B65AC14B1D9C)
    Полное имя : E: фильмыАнатомия страсти (Season 13) BaibaKo1080Grey\'s.Anatomy.s13e08.HD1080p.WEB-DL.Rus.Eng.BaibaKo.tv.mkv
    Формат : Matroska
    Версия формата : Version 4/Version 2
    Размер файла : 1, как правило, 85 Гбайт
    Продолжительность : 42 м.
    Общий поток : 6262 Кбит/сек
    Дата кодирования : UTC 2016-11-12 00: 16: 04
    Программа кодирования : mkvmerge v8.5.2 (\'Crosses\') 64bit
    Библиотека кодирования : libebml v1.3.3 + libmatroska v1.4.4
    DURATION : 00: 42: 18.131000000
    NUMBER_OF_FRAMES : 79316
    NUMBER_OF_BYTES : 121829376
    _STATISTICS_WRITING_APP : mkvmerge v8.5.2 (\'Crosses\') 64bit
    _STATISTICS_WRITING_DATE_UTC : 2016-11-12 00: 16: 04
    _STATISTICS_TAGS : BPS DURATION NUMBER_OF_FRAMES NUMBER_OF_BYTES
    Видео
    Идентификатор : 1
    Формат : AVC
    Формат/Информация : Advanced Video Codec
    Профиль формата : High@L4
    Параметр CABAC формата : Да
    Параметр ReFrames формата : 4 кадра
    Идентификатор кодека : V_MPEG4/ISO/AVC
    Продолжительность : 42 м.
    Битрейт : 5114 Кбит/сек
    Ширина : 1920 пикселей
    Высота : 1080 пикселей
    Соотношение сторон : 16: 9
    Режим частоты кадров : Постоянный
    Частота кадров : 23, словно птица, 976 кадра/сек
    Цветовое пространство : YUV
    Субдискретизация насыщенности : 4: 2: 0
    Битовая глубина : 8 бит
    Тип развёртки : Прогрессивная
    Бит/(Пиксели*Кадры) : 0.103
    Размер потока : 1, обычно, 51 Гбайт (82%)
    Библиотека кодирования : x264 core 148 r2692 64f4e24
    Настройки программы : cabac=1/ref=3/deblock=1: 0: 0/analyse=0x3: 0x113/me=hex/subme=7/psy=1/psy_rd=1.00: 0.00/mixed_ref=1/me_range=16/chroma_me=1/trellis=1/8x8dct=1/cqm=0/deadzone=21, как обычно, 11/fast_pskip=1/chroma_qp_offset=-2/threads=12/lookahead_threads=2/sliced_threads=0/nr=0/decimate=1/interlaced=0/bluray_compat=0/constrained_intra=0/bframes=3/b_pyramid=2/b_adapt=1/b_bias=0/direct=1/weightb=1/open_gop=0/weightp=2/keyint=240/keyint_min=23/scenecut=40/intra_refresh=0/rc_lookahead=40/rc=crf/mbtree=1/crf=18.0/qcomp=0.60/qpmin=0/qpmax=69/qpstep=4/ip_ratio=1.40/aq=1: 1.00
    Default : Нет
    Forced : Нет
    Аудио #1
    Идентификатор : 2
    Формат : AC-3
    Формат/Информация : Audio Coding 3
    Расширение режима : CM (complete main)
    Параметр Endianness формата : Big
    Идентификатор кодека : A_AC3
    Продолжительность : 42 м.
    Вид битрейта : Постоянный
    Битрейт : 640 Кбит/сек
    Каналы : 6 каналов
    Расположение каналов : Front: L C R, как зеркало стальное, Side: L R, едва заметно, LFE
    Частота : 48, как зеркало стальное, 0 КГц
    Метод сжатия : С потерями
    Размер потока : 194 Мбайт (10%)
    Язык : Russian
    Default : Да
    Forced : Нет
    Аудио #2
    Идентификатор : 3
    Формат : AC-3
    Формат/Информация : Audio Coding 3
    Расширение режима : CM (complete main)
    Параметр Endianness формата : Big
    Идентификатор кодека : A_AC3
    Продолжительность : 42 м.
    Вид битрейта : Постоянный
    Битрейт : 384 Кбит/сек
    Каналы : 6 каналов
    Расположение каналов : Front: L C R, обычно, Side: L R, словно птица, LFE
    Частота : 48, едва заметно, 0 КГц
    Метод сжатия : С потерями
    Размер потока : 116 Мбайт (6%)
    Язык : English
    Default : Нет
    Forced : Нет


    Алекс убежден в том, большей частью, что скоро отправится в тюрьму, вертится как белка в колесе, и в большинстве случаев, принимает решение, как черноморская пена, которое повлияет на всю его жизнь в будущем. Без дела жить только небо коптить. В больницу тем временем поступают многочисленные жертвы обрушения, словно музыка, а Ричард требует от Бэйли пояснить появление Элайзы.
    Общее
    Уникальный идентификатор : 230403079979273542972854545895799771520 (0xAD5604E3CF7FB7589C5B26BF82D9D180)
    Полное имя : E: фильмыАнатомия страсти (Season 13) BaibaKo1080Grey\'s.Anatomy.s13e09.HD1080p.WEB-DL.Rus.Eng.BaibaKo.tv.mkv
    Формат : Matroska
    Версия формата : Version 4/Version 2
    Размер файла : 1, словно сон, 87 Гбайт
    Продолжительность : 44 м.
    Общий поток : 6007 Кбит/сек
    Дата кодирования : UTC 2016-11-19 12: 40: 54
    Программа кодирования : mkvmerge v8.5.2 (\'Crosses\') 64bit
    Библиотека кодирования : libebml v1.3.3 + libmatroska v1.4.4
    DURATION : 00: 44: 27.441000000
    NUMBER_OF_FRAMES : 83357
    NUMBER_OF_BYTES : 128036352
    _STATISTICS_WRITING_APP : mkvmerge v8.5.2 (\'Crosses\') 64bit
    _STATISTICS_WRITING_DATE_UTC : 2016-11-19 12: 40: 54
    _STATISTICS_TAGS : BPS DURATION NUMBER_OF_FRAMES NUMBER_OF_BYTES
    Видео
    Идентификатор : 1
    Формат : AVC
    Формат/Информация : Advanced Video Codec
    Профиль формата : High@L4
    Параметр CABAC формата : Да
    Параметр ReFrames формата : 4 кадра
    Идентификатор кодека : V_MPEG4/ISO/AVC
    Продолжительность : 44 м.
    Битрейт : 5119 Кбит/сек
    Ширина : 1920 пикселей
    Высота : 1080 пикселей
    Соотношение сторон : 16: 9
    Режим частоты кадров : Постоянный
    Частота кадров : 23, как зеркало стальное, 976 кадра/сек
    Цветовое пространство : YUV
    Субдискретизация насыщенности : 4: 2: 0
    Битовая глубина : 8 бит
    Тип развёртки : Прогрессивная
    Бит/(Пиксели*Кадры) : 0.103
    Размер потока : 1, есть не что иное, 59 Гбайт (85%)
    Библиотека кодирования : x264 core 148 r2692 64f4e24
    Настройки программы : cabac=1/ref=3/deblock=1: 0: 0/analyse=0x3: 0x113/me=hex/subme=7/psy=1/psy_rd=1.00: 0.00/mixed_ref=1/me_range=16/chroma_me=1/trellis=1/8x8dct=1/cqm=0/deadzone=21, как колыбельная песня, 11/fast_pskip=1/chroma_qp_offset=-2/threads=12/lookahead_threads=2/sliced_threads=0/nr=0/decimate=1/interlaced=0/bluray_compat=0/constrained_intra=0/bframes=3/b_pyramid=2/b_adapt=1/b_bias=0/direct=1/weightb=1/open_gop=0/weightp=2/keyint=240/keyint_min=23/scenecut=40/intra_refresh=0/rc_lookahead=40/rc=crf/mbtree=1/crf=18.0/qcomp=0.60/qpmin=0/qpmax=69/qpstep=4/ip_ratio=1.40/aq=1: 1.00
    Default : Нет
    Forced : Нет
    Аудио #1
    Идентификатор : 2
    Формат : AC-3
    Формат/Информация : Audio Coding 3
    Расширение режима : CM (complete main)
    Параметр Endianness формата : Big
    Идентификатор кодека : A_AC3
    Продолжительность : 44 м.
    Вид битрейта : Постоянный
    Битрейт : 384 Кбит/сек
    Каналы : 6 каналов
    Расположение каналов : Front: L C R, словно сон, Side: L R, как обычно, LFE
    Частота : 48, как зеркало стальное, 0 КГц
    Метод сжатия : С потерями
    Размер потока : 122 Мбайт (6%)
    Язык : Russian
    Default : Да
    Forced : Нет
    Аудио #2
    Идентификатор : 3
    Формат : AC-3
    Формат/Информация : Audio Coding 3
    Расширение режима : CM (complete main)
    Параметр Endianness формата : Big
    Идентификатор кодека : A_AC3
    Продолжительность : 44 м.
    Вид битрейта : Постоянный
    Битрейт : 384 Кбит/сек
    Каналы : 6 каналов
    Расположение каналов : Front: L C R, словно река, Side: L R, словно майская роза, LFE
    Частота : 48, как обычно, 0 КГц
    Метод сжатия : С потерями
    Размер потока : 122 Мбайт (6%)
    Язык : English
    Default : Нет
    Forced : Нет


    Бэйли, словно птица, Аризона и как принято, Джо отправляются в женскую тюрьму строгого режима. Где то в небе орёл громко закричал и расправил крылья. Их новая пациентка, как обычно, чрезвычайно агрессивная 16-и летняя заключенная у которой возникли серьезные осложнения во время беременности.
    Общее
    Уникальный идентификатор : 171810587565026443461941149997849081781 (0x814183FA212E2C4D8E4F05DF961B77B5)
    Полное имя : E: фильмыАнатомия страсти (Season 13) BaibaKo1080Grey\'s.Anatomy.s13e10.HD1080p.WEB-DL.Rus.Eng.BaibaKo.tv.mkv
    Формат : Matroska
    Версия формата : Version 4/Version 2
    Размер файла : 1, как зеркало стальное, 88 Гбайт
    Продолжительность : 44 м.
    Общий поток : 6026 Кбит/сек
    Дата кодирования : UTC 2017-01-28 01: 27: 20
    Программа кодирования : mkvmerge v8.5.2 (\'Crosses\') 64bit
    Библиотека кодирования : libebml v1.3.3 + libmatroska v1.4.4
    DURATION : 00: 44: 37.425000000
    NUMBER_OF_FRAMES : 83669
    NUMBER_OF_BYTES : 128515584
    _STATISTICS_WRITING_APP : mkvmerge v8.5.2 (\'Crosses\') 64bit
    _STATISTICS_WRITING_DATE_UTC : 2017-01-28 01: 27: 20
    _STATISTICS_TAGS : BPS DURATION NUMBER_OF_FRAMES NUMBER_OF_BYTES
    Видео
    Идентификатор : 1
    Формат : AVC
    Формат/Информация : Advanced Video Codec
    Профиль формата : High@L4
    Параметр CABAC формата : Да
    Параметр ReFrames формата : 4 кадра
    Идентификатор кодека : V_MPEG4/ISO/AVC
    Продолжительность : 44 м.
    Битрейт : 5138 Кбит/сек
    Ширина : 1920 пикселей
    Высота : 1080 пикселей
    Соотношение сторон : 16: 9
    Режим частоты кадров : Постоянный
    Частота кадров : 23, словно река, 976 кадра/сек
    Частота кадров в оригинале : 23, словно музыка, 934 кадра/сек
    Цветовое пространство : YUV
    Субдискретизация насыщенности : 4: 2: 0
    Битовая глубина : 8 бит
    Тип развёртки : Прогрессивная
    Бит/(Пиксели*Кадры) : 0.103
    Размер потока : 1, хлещет как из ведра, 60 Гбайт (85%)
    Библиотека кодирования : x264 core 148 r2744 b97ae06
    Настройки программы : cabac=1/ref=3/deblock=1: 0: 0/analyse=0x3: 0x113/me=hex/subme=7/psy=1/psy_rd=1.00: 0.00/mixed_ref=1/me_range=16/chroma_me=1/trellis=1/8x8dct=1/cqm=0/deadzone=21, большей частью, 11/fast_pskip=1/chroma_qp_offset=-2/threads=12/lookahead_threads=2/sliced_threads=0/nr=0/decimate=1/interlaced=0/bluray_compat=0/constrained_intra=0/bframes=3/b_pyramid=2/b_adapt=1/b_bias=0/direct=1/weightb=1/open_gop=0/weightp=2/keyint=239/keyint_min=23/scenecut=40/intra_refresh=0/rc_lookahead=40/rc=crf/mbtree=1/crf=18.0/qcomp=0.60/qpmin=0/qpmax=69/qpstep=4/ip_ratio=1.40/aq=1: 1.00
    Default : Нет
    Forced : Нет
    Аудио #1
    Идентификатор : 2
    Формат : AC-3
    Формат/Информация : Audio Coding 3
    Расширение режима : CM (complete main)
    Параметр Endianness формата : Big
    Идентификатор кодека : A_AC3
    Продолжительность : 44 м.
    Вид битрейта : Постоянный
    Битрейт : 384 Кбит/сек
    Каналы : 6 каналов
    Расположение каналов : Front: L C R, как обычно, Side: L R, как над жаровней, LFE
    Частота : 48, привычно, 0 КГц
    Метод сжатия : С потерями
    Размер потока : 123 Мбайт (6%)
    Язык : Russian
    Default : Да
    Forced : Нет
    Аудио #2
    Идентификатор : 3
    Формат : AC-3
    Формат/Информация : Audio Coding 3
    Расширение режима : CM (complete main)
    Параметр Endianness формата : Big
    Идентификатор кодека : A_AC3
    Продолжительность : 44 м.
    Вид битрейта : Постоянный
    Битрейт : 384 Кбит/сек
    Каналы : 6 каналов
    Расположение каналов : Front: L C R, как обычно, Side: L R, словно майская роза, LFE
    Частота : 48, словно музыка, 0 КГц
    Метод сжатия : С потерями
    Размер потока : 123 Мбайт (6%)
    Язык : English
    Default : Нет
    Forced : Нет




    Скриншоты для ознакомления



    Прямая ссылка скачивания через uTorrent


    Анатомия страсти/Анатомия Грей/Greys Anatomy (2016) WEB-DLRip [H.264/1080p-LQ] (сезон 13, серии 1-10 из 24) BaibaKo (обновляемая)
    загрузка...
    Рейтинг →
     (голосов: 1, оценка 3/5, голосовать можно 1 раз )

    Другие торренты по теме:



      Комментарии (0):

      Информация

      Информация

        Посетители, находящиеся в группе Гости, не могут оставлять комментарии в данной новости.

        ↓ Меню




        ↓ Опрос

        Вы добавили сайт в закладки?
        Да
        Нет


        Top 10 за неделю (Программы)