.
Авторизация | Регистрация
Хочешь лучшие торренты? Добавь свой email!
Добавить

Торрент скачать бесплатно

» » Волшебники / The Magicians (2017) HDTVRip [H.264 / 720p-LQ] (сезон 2, серии 1 из 13) Jaskier (обновляемая) торрент скачать бесплатно



    Волшебники / The Magicians (2017) HDTVRip [H.264 / 720p-LQ] (сезон 2, серии 1 из 13) Jaskier (обновляемая) торрент скачать бесплатно

    Опубликовал: Админ | Дата: 1-02-2017, 05:01 | Просмотров: 0

    Производство: США/Groundswell Productions, NBC Universal Television, Universal Cable Productions
    Жанр: ужасы, фэнтези, драма, детектив
    Режиссер: Крис Фишер, Джошуа Батлер, Джеймс Л. Конуэй
    Актеры: Эсме Бьянко, Стелла Маив, Джейсон Ральф, Майкл Кэссиди, Саммер Бишил, Дэвид Колл, Рик Уорси, Темби Лок, Арджун Гупта, Хейл Эйплмен и др.

    Описание

    Все мечты Квентина сбылись, когда он поступил в Университет Брейкбиллс: он открыл, что магия реальна, влюбился в Элис Квин, и нашёл группу друзей-единомышленников, с которыми он связан. Он наконец-то почувствовал, что принадлежит чему-то. Так скоро, как Квентин узнаёт о магии, так же он приходит к суровому осознанию того, что без должного контроля или набора навыков, она может разрушить всё, чего он когда-либо хотел. Сейчас так, как никогда, Квентин должен избавиться от скромных, мальчишеских путей решения проблем, и принять позицию, связанную с великой силой и ответственностью, так как он и его друзья борются не только за свои жизни, но и чтобы спасти существование магии.

    Продолжительность: ~ 00: 46: 00 серия
    Качество видео: HDTVRip
    Перевод: Многоголосый закадровый, профессиональный -Jaskier
    Видео: AVC/H.264, 1280x720 (16: 9), ~2 419 kbps
    Аудио Rus: AC3, 48, 0 kHz, 6 ch, 384 kbps - многоголосый закадровый
    Аудио Eng: AC3, 48, 0 kHz, 6 ch, 384 kbps - оригинал
    General
    Unique ID : 170708742187046758724989160291474965418 (0x806D4ECE40C637128ABEEC6FD1D983AA)
    Complete name : The Magicians S02 JaskierThe.Magicians.US.S02E01.720p.HDTV.x264-JASKIER.mkv
    Format : Matroska
    Format version : Version 4/Version 2
    File size : 1.03 GiB
    Duration : 46 min 9 s
    Overall bit rate : 3 189 kb/s
    Encoded date : UTC 2017-01-29 14: 23: 13
    Writing application : mkvmerge v9.8.0 (\'Kuglblids\') 64bit
    Writing library : libebml v1.3.4 + libmatroska v1.4.5
    Video
    ID : 1
    Format : AVC
    Format/Info : Advanced Video Codec
    Format profile : High@L4.1
    Format settings, CABAC : Yes
    Format settings, ReFrames : 5 frames
    Codec ID : V_MPEG4/ISO/AVC
    Duration : 46 min 9 s
    Bit rate : 2 419 kb/s
    Width : 1 280 pixels
    Height : 720 pixels
    Display aspect ratio : 16: 9
    Frame rate mode : Constant
    Frame rate : 23.976 (24000/1001) FPS
    Color space : YUV
    Chroma subsampling : 4: 2: 0
    Bit depth : 8 bits
    Scan type : Progressive
    Bits/(Pixel*Frame) : 0.109
    Stream size : 799 MiB (76%)
    Writing library : x264 core 148 r2744 b97ae06
    Encoding settings : cabac=1/ref=5/deblock=1: 0: 0/analyse=0x3: 0x113/me=hex/subme=8/psy=1/psy_rd=1.00: 0.00/mixed_ref=1/me_range=16/chroma_me=1/trellis=2/8x8dct=1/cqm=0/deadzone=21, 11/fast_pskip=1/chroma_qp_offset=-2/threads=22/lookahead_threads=3/sliced_threads=0/nr=0/decimate=1/interlaced=0/bluray_compat=0/constrained_intra=0/bframes=3/b_pyramid=2/b_adapt=1/b_bias=0/direct=3/weightb=1/open_gop=0/weightp=2/keyint=250/keyint_min=23/scenecut=40/intra_refresh=0/rc_lookahead=50/rc=crf/mbtree=1/crf=18.0/qcomp=0.60/qpmin=0/qpmax=69/qpstep=4/ip_ratio=1.40/aq=1: 1.00
    Language : English
    Default : Yes
    Forced : No
    Color range : Limited
    Matrix coefficients : BT.709
    Audio #1
    ID : 2
    Format : AC-3
    Format/Info : Audio Coding 3
    Mode extension : CM (complete main)
    Format settings, Endianness : Big
    Codec ID : A_AC3
    Duration : 46 min 9 s
    Bit rate mode : Constant
    Bit rate : 384 kb/s
    Channel(s) : 6 channels
    Channel positions : Front: L C R, Side: L R, LFE
    Sampling rate : 48.0 kHz
    Frame rate : 31.250 FPS (1536 spf)
    Bit depth : 16 bits
    Compression mode : Lossy
    Stream size : 127 MiB (12%)
    Language : Russian
    Default : Yes
    Forced : No
    Audio #2
    ID : 3
    Format : AC-3
    Format/Info : Audio Coding 3
    Mode extension : CM (complete main)
    Format settings, Endianness : Big
    Codec ID : A_AC3
    Duration : 46 min 9 s
    Bit rate mode : Constant
    Bit rate : 384 kb/s
    Channel(s) : 6 channels
    Channel positions : Front: L C R, Side: L R, LFE
    Sampling rate : 48.0 kHz
    Frame rate : 31.250 FPS (1536 spf)
    Bit depth : 16 bits
    Compression mode : Lossy
    Stream size : 127 MiB (12%)
    Language : English
    Default : No
    Forced : No


    Скриншоты для ознакомления



    Прямая ссылка скачивания через uTorrent


    Волшебники/The Magicians (2017) HDTVRip [H.264/720p-LQ] (сезон 2, серии 1 из 13) Jaskier (обновляемая)
    загрузка...
    Рейтинг →
     (голосов: 1, оценка 3/5, голосовать можно 1 раз )

    Другие торренты по теме:

  • Волшебники / The Magicians (2016) HDTVRip (сезон 1, серии 1 из 13) BaibaKo (обновляемая) скачать через торрент бесплатно
  • Волшебники / The Magicians (2016) HDTVRip (сезон 1, серии 1 из 13) LostFilm (обновляемая) скачать через торрент бесплатно
  • Волшебники / The Magicians (2015) HDTV [H.264 / 720p-LQ] (сезон 1, серии 1 из 12) BaibaKo (обновляемая)
  • Волшебники / The Magicians (2015) HDTVRip [H.264] (сезон 1, серии 1 из 12) BaibaKo [MP4|720x400]
  • Волшебники / The Magicians (2015) HDTVRip [H.264] (сезон 1, серии 1 из 12) LostFilm [MP4|1280x720]
  • Волшебники / The Magicians (2017) WEB-DL [H.264 / 720p-LQ] (сезон 2, серии 1-13 из 13) Jaskier


    • Комментарии (0):

      Информация

      Информация

        Посетители, находящиеся в группе Гости, не могут оставлять комментарии в данной новости.

        ↓ Меню




        ↓ Опрос

        Вы добавили сайт в закладки?
        Да
        Нет


        Top 10 за месяц (Программы)