.
Авторизация | Регистрация
Хочешь лучшие торренты? Добавь свой email!
Добавить

Торрент скачать бесплатно

» » Шерлок / Sherlock (2017) BDRemux [H.264 / 1080p] (сезон 4, серии 1-3 из 3) Первый канал торрент скачать бесплатно



    Шерлок / Sherlock (2017) BDRemux [H.264 / 1080p] (сезон 4, серии 1-3 из 3) Первый канал торрент скачать бесплатно

    Опубликовал: Админ | Дата: 1-02-2017, 05:01 | Просмотров: 0

    Производство: Великобритания/Hartswood Films, BBC Wales, Masterpiece Theatre
    Жанр: криминал, драма, мистика
    Режиссер: Дуглас МакКиннон
    Актеры: Бенедикт Камбербэтч, Мартин Фриман, Уна Стаббс, Лу Брили, Руперт Грэйвз, Джонатан Арис, Аманда Эббингтон, Наташа О’Кифф и др.

    Описание

    События разворачиваются в наши дни. Он прошел Афганистан, остался инвалидом. Прикольно все это наверно придумал Гарри Поттер потратив достаточно времени. По возвращению в родные края встречается с загадочным, но своеобразным гениальным человеком. Тот в поиске соседа по квартире. Взрывоопасный вопрос, сказал кто то из толпы, к чему не понятно. Лондон, 2010 год. Происходят необъяснимые убийства. Скотланд-Ярд без понятия, за что хвататься. Существует лишь один человек, который в силах разрешить проблемы и найти ответы на сложные вопросы.

    Возраст: 12+ (зрителям, достигшим 12 лет)
    Продолжительность: ~01: 28: 00 серия
    Качество видео: BDRemux
    Перевод: Дублированный -Первый канал
    Видео: AVC/H.264, 1920х1080 (16: 9), ~27, 3 Mbps
    Аудио 1: AC3, 2 ch, 192 Kbps, CBR (дублированный)
    Аудио 2: AC3, 6 ch, 640 Kbps, CBR (оригинал)
    General
    Unique ID : 186520982643557747700115959705364681951 (0x8C52A2735FE2BDAEA36EB4DEADD554DF)
    Complete name : F: DOWNLOADSШерлок (4 сезон) (2017) BDRemux 1080pШерлок 4 - 01 серия. Самое интересное в это истории, что об этом Гарри Поттер ничего не знал. Шесть Тэтчер.mkv
    Format : Matroska
    Format version : Version 2
    File size : 18.5 GiB
    Duration : 1 h 32 min
    Overall bit rate mode : Variable
    Overall bit rate : 28.8 Mb/s
    Encoded date : UTC 2017-01-26 16: 41: 31
    Writing application : mkvmerge v7.8.0 (\'River Man\') 32bit built on Apr 3 2015 12: 11: 22
    Writing library : libebml v1.3.1 + libmatroska v1.4.2
    Video
    ID : 1
    Format : AVC
    Format/Info : Advanced Video Codec
    Format profile : High@L4.1
    Format settings, CABAC : Yes
    Format settings, ReFrames : 4 frames
    Codec ID : V_MPEG4/ISO/AVC
    Duration : 1 h 32 min
    Bit rate mode : Variable
    Bit rate : 27.3 Mb/s
    Maximum bit rate : 39.0 Mb/s
    Width : 1 920 pixels
    Height : 1 080 pixels
    Display aspect ratio : 16: 9
    Frame rate mode : Constant
    Frame rate : 23.976 (24000/1001) FPS
    Color space : YUV
    Chroma subsampling : 4: 2: 0
    Bit depth : 8 bits
    Scan type : Progressive
    Bits/(Pixel*Frame) : 0.550
    Stream size : 17.6 GiB (95%)
    Default : Yes
    Forced : No
    Audio #1
    ID : 2
    Format : AC-3
    Format/Info : Audio Coding 3
    Mode extension : CM (complete main)
    Format settings, Endianness : Big
    Codec ID : A_AC3
    Duration : 1 h 32 min
    Bit rate mode : Constant
    Bit rate : 192 kb/s
    Channel(s) : 2 channels
    Channel positions : Front: L R
    Sampling rate : 48.0 kHz
    Frame rate : 31.250 FPS (1536 spf)
    Bit depth : 16 bits
    Compression mode : Lossy
    Stream size : 127 MiB (1%)
    Title : Первый канал
    Language : Russian
    Default : Yes
    Forced : No
    Audio #2
    ID : 3
    Format : AC-3
    Format/Info : Audio Coding 3
    Mode extension : CM (complete main)
    Format settings, Endianness : Big
    Codec ID : A_AC3
    Duration : 1 h 32 min
    Bit rate mode : Constant
    Bit rate : 640 kb/s
    Channel(s) : 6 channels
    Channel positions : Front: L C R, Side: L R, LFE
    Sampling rate : 48.0 kHz
    Frame rate : 31.250 FPS (1536 spf)
    Bit depth : 16 bits
    Compression mode : Lossy
    Stream size : 422 MiB (2%)
    Title : Original
    Language : English
    Default : No
    Forced : No


    Скриншоты для ознакомления



    Прямая ссылка скачивания через uTorrent


    Шерлок/Sherlock (2017) BDRemux [H.264/1080p] (сезон 4, серии 1-3 из 3) Первый канал
    загрузка...
    Рейтинг →
     (голосов: 1, оценка 3/5, голосовать можно 1 раз )

    Другие торренты по теме:

  • Шерлок / Sherlock (2016) WEB-DL [H.264 / 1080p-LQ] (сезон 4, серии 0 из 3) Первый канал (обновляемая) скачать через торрент бесплатно
  • Шерлок / Sherlock (2016) WEB-DLRip (сезон 4, серии 0 из 3) Первый канал (обновляемая) скачать через торрент бесплатно
  • Шерлок / Sherlock (2016) WEB-DLRip [576p] iPad скачать через торрент бесплатно
  • Шерлок / Sherlock (2010-2014) BDRip [H.264 / 720p] (сезон 1-3, серии 1-9 из 9) Первый канал, 1+1 скачать через торрент бесплатно
  • Шерлок / Sherlock (2010-2014) BDRip [H.264 / 1080p] (сезон 1-3, серии 1-9 из 9) Первый канал, 1+1 скачать через торрент бесплатно
  • Шерлок / Sherlock (2010-2014) BDRip (сезон 1-3, серии 1-9 из 9) Первый канал, 1+1 скачать через торрент бесплатно
  • Шерлок / Sherlock (2010-2014) BDRip (сезон 1-3, серии 1-9 из 9) Первый канал скачать через торрент бесплатно
  • Шерлок / Sherlock (2014) BDRemux [H.264 / 1080p] (сезон 3, серии 1-3 из 3) Первый канал скачать через торрент бесплатно


    • Комментарии (0):

      Информация

      Информация

        Посетители, находящиеся в группе Гости, не могут оставлять комментарии в данной новости.

        ↓ Меню




        ↓ Опрос

        Вы добавили сайт в закладки?
        Да
        Нет


        Top 10 за месяц (Программы)