.
Авторизация | Регистрация
Хочешь лучшие торренты? Добавь свой email!
Добавить

Торрент скачать бесплатно

» » Черные паруса / Black Sails (2017) WEBRip [H.264 / 720p] (сезон 4, серии 1 из 10) SDI Media (обновляемая) торрент скачать бесплатно



    Черные паруса / Black Sails (2017) WEBRip [H.264 / 720p] (сезон 4, серии 1 из 10) SDI Media (обновляемая) торрент скачать бесплатно

    Опубликовал: Админ | Дата: 1-02-2017, 05:01 | Просмотров: 0

    Производство: США, ЮАР
    Жанр: драма, приключения
    Режиссер: Стив Бойум, Кларк Джонсон, Алик Сахаров
    Актеры: Зэк МакГоун, Люк Арнольд, Джессика Паркер Кеннеди, Луиз Барнс, Тоби Стивенс, Ханна Нью, Шон Майкл, Ричард Дж.В. Фёрт, Патрик Листер, Тоби Шмит и др.

    Описание

    1715 год. Золотой век — вершина пиратства в Карибском море. О таком странном сюжете не догадывалась даже Шакира. Остров бывшей британской колонии Нью-Провиденс является территорией беззакония, контролируемый самыми известными пиратскими капитанами в истории. Самым грозным из них является капитан Флинт.
    Но британский флот возвращается в эти воды, угрожая уничтожить Флинта и его команду. Движимый глубокими, сложными, даже романтическими мотивами, Флинт становится союзником с грозной Элеонорой Гатри, дочерью местного вора в законе, который превращает добычу пиратов в прибыль. Вместе они создают план, охотясь за высшей наградой, выиграв которую, они остановят захват своего дома и обеспечат их выживание.

    Возраст: 16+ (зрителям, достигшим 16 лет)
    Продолжительность: ~01: 00: 00 серия
    Качество видео: WEBRip
    Перевод: Многоголосый закадровый, профессиональный -SDI Media по заказу Amedia
    Вид субтитров: вшитые отключаемые
    Язык субтитров: русский, английский
    Видео: AVC/H.264, 1280x720 (16: 9), ~5535 Kbps
    Аудио #1 Rus: AC3, 2 ch, 192 Kbps - (многоголосый закадровый)
    Аудио #2 Eng: E-AC3, 6 ch, 640 Kbps - (оригинал)

    Полное имя : N: Black_Sails_s4_WEBRip720p_Amedia_NNMClubBlack.Sails.S04E01.WEBRip.720p.Amedia.mkv
    Формат : Matroska
    Версия формата : Version 4/Version 2
    Размер файла : 2, 67 Гбайт
    Продолжительность : 1 ч. 0 м.
    Общий поток : 6372 Кбит/сек
    Дата кодирования : UTC 2017-01-30 21: 48: 27
    Программа кодирования : mkvmerge v9.8.0 (\'Kuglblids\') 64bit
    Библиотека кодирования : libebml v1.3.4 + libmatroska v1.4.5
    Видео
    Идентификатор : 1
    Формат : AVC
    Формат/Информация : Advanced Video Codec
    Профиль формата : High@L4.1
    Параметр CABAC формата : Да
    Параметр ReFrames формата : 4 кадра
    Идентификатор кодека : V_MPEG4/ISO/AVC
    Продолжительность : 1 ч. 0 м.
    Битрейт : 5535 Кбит/сек
    Ширина : 1280 пикселей
    Высота : 720 пикселей
    Соотношение сторон : 16: 9
    Режим частоты кадров : Постоянный
    Частота кадров : 23, 976 кадра/сек
    Цветовое пространство : YUV
    Субдискретизация насыщенности : 4: 2: 0
    Битовая глубина : 8 бит
    Тип развёртки : Прогрессивная
    Бит/(Пиксели*Кадры) : 0.250
    Размер потока : 2, 32 Гбайт (87%)
    Библиотека кодирования : x264 core 146 r2538M 121396c
    Настройки программы : cabac=1/ref=5/deblock=1: -2: -2/analyse=0x3: 0x133/me=umh/subme=8/psy=1/psy_rd=1, 00: 0, 15/mixed_ref=1/me_range=24/chroma_me=1/trellis=1/8x8dct=1/cqm=0/deadzone=21, 11/fast_pskip=1/chroma_qp_offset=-3/threads=18/lookahead_threads=4/sliced_threads=0/nr=0/decimate=1/interlaced=0/bluray_compat=0/constrained_intra=0/bframes=5/b_pyramid=1/b_adapt=2/b_bias=0/direct=3/weightb=1/open_gop=0/weightp=2/keyint=230/keyint_min=23/scenecut=40/intra_refresh=0/rc_lookahead=230/rc=2pass/mbtree=1/bitrate=5535/ratetol=1, 0/qcomp=0, 60/qpmin=10/qpmax=51/qpstep=4/cplxblur=20, 0/qblur=0, 5/ip_ratio=1, 40/aq=1: 1, 00
    Язык : English
    Default : Да
    Forced : Нет
    Аудио #1
    Идентификатор : 2
    Формат : AC-3
    Формат/Информация : Audio Coding 3
    Расширение режима : CM (complete main)
    Параметр Endianness формата : Big
    Идентификатор кодека : A_AC3
    Продолжительность : 1 ч. 0 м.
    Вид битрейта : Постоянный
    Битрейт : 192 Кбит/сек
    Каналы : 2 канала
    Расположение каналов : Front: L R
    Частота : 48, 0 КГц
    Частота кадров : 31, 250 кадров/сек
    Метод сжатия : С потерями
    Размер потока : 82, 5 Мбайт (3%)
    Заголовок : SDI Media
    Язык : Russian
    Default : Да
    Forced : Нет
    Аудио #2
    Идентификатор : 3
    Формат : E-AC-3
    Формат/Информация : Audio Coding 3
    Параметр Endianness формата : Big
    Идентификатор кодека : A_EAC3
    Продолжительность : 1 ч. 0 м.
    Вид битрейта : Постоянный
    Битрейт : 640 Кбит/сек
    Каналы : 6 каналов
    Расположение каналов : Front: L C R, Side: L R, LFE
    Частота : 48, 0 КГц
    Частота кадров : 187, 500 кадров/сек
    Метод сжатия : С потерями
    Размер потока : 275 Мбайт (10%)
    Язык : English
    Default : Нет
    Forced : Нет
    Текст #1
    Идентификатор : 4
    Формат : UTF-8
    Идентификатор кодека : S_TEXT/UTF8
    Идентификатор кодека/Информация : UTF-8 Plain Text
    Продолжительность : 58 м.
    Битрейт : 88 бит/сек
    Count of elements : 657
    Размер потока : 37, 8 Кбайт (0%)
    Заголовок : Russian
    Язык : Russian
    Default : Нет
    Forced : Нет
    Текст #2
    Идентификатор : 5
    Формат : UTF-8
    Идентификатор кодека : S_TEXT/UTF8
    Идентификатор кодека/Информация : UTF-8 Plain Text
    Продолжительность : 58 м.
    Битрейт : 58 бит/сек
    Count of elements : 744
    Размер потока : 25, 2 Кбайт (0%)
    Заголовок : English
    Язык : English
    Default : Нет
    Forced : Нет
    Текст #3
    Идентификатор : 6
    Формат : UTF-8
    Идентификатор кодека : S_TEXT/UTF8
    Идентификатор кодека/Информация : UTF-8 Plain Text
    Продолжительность : 58 м.
    Битрейт : 63 бит/сек
    Count of elements : 823
    Размер потока : 27, 3 Кбайт (0%)
    Заголовок : English (SDH)
    Язык : English
    Default : Нет
    Forced : Нет


    Скриншоты для ознакомления



    Прямая ссылка скачивания через uTorrent


    Черные паруса/Black Sails (2017) WEBRip [H.264/720p] (сезон 4, серии 1 из 10) SDI Media (обновляемая)
    загрузка...
    Рейтинг →
     (голосов: 1, оценка 5/5, голосовать можно 1 раз )

    Другие торренты по теме:

  • Черные паруса (Black Sails) / (Сезон 1, серии 1-8 из 8) LostFilm (2014) [MP4|1280x720] <HDTVRip H.264> скачать через торрент бесплатно
  • Черные паруса / Black Sails (2015) HDTV [H.264 / 720p-LQ] (сезон 2, серии 1 из 10) (BaibaKo) (обновляемая)
  • Черные паруса (Black Sails) / (Сезон 2, серия 1 из 10) BaibaKo (2015) [MP4|720x400] <HDTVRip [H.264]>
  • Черные паруса / Black Sails (2015) WEB-DL [H.264 / 720p-LQ] (сезон 2, серии 1 из 10) (LostFilm) (обновляемая) скачать через торрент бесплатно
  • Черные паруса (Black Sails) / (Сезон 2, серия 1 из 10) LostFilm (2015) [MP4|1280x720] <HDTVRip [H.264]> скачать через торрент бесплатно
  • Черные паруса / Black Sails (2016) HDTV [H.264 / 720p-LQ] (сезон 3, серии 1 из 10) BaibaKo (обновляемая)
  • Черные паруса / Black Sails (2016) HDTVRip [H.264] (сезон 3, серии 1 из 10) BaibaKo [MP4|720x400]
  • Черные паруса / Black Sails (2016) HDTVRip [H.264] (сезон 3, серии 1 из 10) LostFilm [MP4|1280x720]


    • Комментарии (0):

      Информация

      Информация

        Посетители, находящиеся в группе Гости, не могут оставлять комментарии в данной новости.

        ↓ Меню




        ↓ Опрос

        Вы добавили сайт в закладки?
        Да
        Нет


        Top 10 за месяц (Программы)