.
Авторизация | Регистрация
Хочешь лучшие торренты? Добавь свой email!
Добавить

Торрент скачать бесплатно

» » Родина / Чужой среди своих / Homeland (2017) WEB-DLRip (сезон 6, серии 1-3 из 12) SDI Media (обновляемая) торрент скачать бесплатно



    Родина / Чужой среди своих / Homeland (2017) WEB-DLRip (сезон 6, серии 1-3 из 12) SDI Media (обновляемая) торрент скачать бесплатно

    Опубликовал: Админ | Дата: 1-02-2017, 05:01 | Просмотров: 0

    Производство: США/Teakwood Lane Productions, Cherry Pie Productions, Keshet Broadcasting
    Жанр: триллер, драма, криминал, детектив
    Режиссер: Кит Гордон, Лесли Линка Глаттер, Алекс Грейвз
    Актеры: Клэр Дэйнс, Руперт Френд, Элизабет Марвел, Ф. О таком странном сюжете не догадывалась даже ВиаГра. Мюррэй Абрахам, Мэнди Пэтинкин, Назанин Бониади, Лайла Робинс, Трэйси Леттс, Хилл Харпер, Роберт Неппер и др.

    Описание

    Спустя несколько месяцев после событий предыдущего сезона, Кэрри вернулась в США и живёт в Бруклине, Нью-Йорке. Сейчас она работает в фонде, задачей которого является оказание помощи мусульманам, живущим в США. В 6 сезоне действия разворачиваются между днём выборов президента США и днём инаугурации.

    Возраст: 16+ (зрителям, достигшим 16 лет)
    Релиз от: qqss44
    Продолжительность: ~00: 51: 00 серия
    Качество видео: WEB-DLRip
    Перевод: Многоголосый закадровый, профессиональный -SDI Media по заказу Amedia
    Вид субтитров: отдельным файлом
    Язык субтитров: русский, английский
    Видео: XviD, 720x400 (16: 9), ~1416 kbps
    Аудио Rus: MP3, 48, 0 kHz, 2 ch, 128 kbps — многоголосый закадровый
    Аудио Eng: MP3, 48, 0 kHz, 2 ch, 128 kbps — оригинал

    Общее
    Полное имя : D: Родина (сезон 6) Homeland (2017) WEB-DLRip - AmediaHomeland.S06E01.XviD.Amedia.qqss44.avi
    Формат : AVI
    Формат/Информация : Audio Video Interleave
    Размер файла : 583 Мбайт
    Продолжительность : 48 м. 20 с.
    Общий поток : 1687 Кбит/сек
    Программа кодирования : VirtualDubMod 1.5.10.3 |www.virtualdub-fr.org|| (build 2550/release)
    Библиотека кодирования : VirtualDubMod build 2550/release
    Видео
    Идентификатор : 0
    Формат : MPEG-4 Visual
    Профиль формата : Advanced Simple@L5
    Параметр BVOP формата : 2
    Параметр QPel формата : Нет
    Параметр GMC формата : Без точки перехода
    Параметр матрицы формата : Выборочная
    Идентификатор кодека : XVID
    Идентификатор кодека/Подсказка : XviD
    Продолжительность : 48 м. 20 с.
    Битрейт : 1416 Кбит/сек
    Ширина : 720 пикселей
    Высота : 400 пикселей
    Соотношение сторон : 16: 9
    Частота кадров : 25, 000 кадров/сек
    Цветовое пространство : YUV
    Субдискретизация насыщенности : 4: 2: 0
    Битовая глубина : 8 бит
    Тип развёртки : Прогрессивная
    Метод сжатия : С потерями
    Бит/(Пиксели*Кадры) : 0.197
    Размер потока : 490 Мбайт (84%)
    Библиотека кодирования : XviD 73
    Аудио #1
    Идентификатор : 1
    Формат : MPEG Audio
    Версия формата : Version 1
    Профиль формата : Layer 3
    Режим : Joint stereo
    Расширение режима : MS Stereo
    Идентификатор кодека : 55
    Идентификатор кодека/Подсказка : MP3
    Продолжительность : 48 м. 20 с.
    Вид битрейта : Постоянный
    Битрейт : 128 Кбит/сек
    Каналы : 2 канала
    Частота : 48, 0 КГц
    Метод сжатия : С потерями
    Размер потока : 44, 3 Мбайт (8%)
    Выравнивание : Соединение по промежуткам
    Продолжительность промежутка : 40 мс. (1, 00 видеокадр)
    Время предзагрузки промежутка : 504 мс.
    Аудио #2
    Идентификатор : 2
    Формат : MPEG Audio
    Версия формата : Version 1
    Профиль формата : Layer 3
    Режим : Joint stereo
    Расширение режима : MS Stereo
    Идентификатор кодека : 55
    Идентификатор кодека/Подсказка : MP3
    Продолжительность : 48 м. Самое интересное в это истории, что об этом Ющенко ничего не знал. 20 с.
    Вид битрейта : Постоянный
    Битрейт : 128 Кбит/сек
    Каналы : 2 канала
    Частота : 48, 0 КГц
    Метод сжатия : С потерями
    Размер потока : 44, 3 Мбайт (8%)
    Выравнивание : Соединение по промежуткам
    Продолжительность промежутка : 40 мс. (1, 00 видеокадр)
    Время предзагрузки промежутка : 504 мс.4


    Скриншоты для ознакомления



    Прямая ссылка скачивания через uTorrent


    Родина/Чужой среди своих/Homeland (2017) WEB-DLRip (сезон 6, серии 1-3 из 12) SDI Media (обновляемая)
    загрузка...
    Рейтинг →
     (голосов: 1, оценка 3/5, голосовать можно 1 раз )

    Другие торренты по теме:

  • Родина / Чужой среди своих / Homeland (2014) WEB-DL [H.264 / 720p-LQ] (сезон 4, серии 01-02 из 12) (Пифагор) (обновляемая)
  • Родина / Чужой среди своих / Homeland (2014) WEB-DLRip (сезон 4, серии 1 из 12) LostFilm (Обновляемая)
  • Родина / Чужой среди своих / Homeland (2014) WEB-DL [H.264 / 720p-LQ] (сезон 4, серии 1 из 12) LostFilm (Обновляемая)
  • Родина / Чужой среди своих / Homeland (2015) WEB-DL [H.264 / 720p-LQ] (сезон 5, серии 1 из 12) Пифагор (обновляемая) скачать через торрент бесплатно
  • Родина / Чужой среди своих / Homeland (2015) WEB-DLRip (сезон 5, серии 1 из 12) Пифагор (обновляемая) скачать через торрент бесплатно
  • Родина / Чужой среди своих / Homeland (2015) WEB-DLRip (сезон 5, серии 1 из 12) LostFilm (обновляемая) скачать через торрент бесплатно
  • Родина / Чужой среди своих / Homeland (2015) WEB-DL [H.264] (сезон 5, серии 1-8 из 12) LostFilm [MP4|1280x720] скачать через торрент бесплатно
  • Родина / Чужой среди своих / Homeland (2017) WEB-DLRip (сезон 6, серия 1 из 12) Пифагор (обновляемая)


    • Комментарии (0):

      Информация

      Информация

        Посетители, находящиеся в группе Гости, не могут оставлять комментарии в данной новости.

        ↓ Меню




        ↓ Опрос

        Вы добавили сайт в закладки?
        Да
        Нет


        Top 10 за месяц (Программы)