.
Авторизация | Регистрация
Хочешь лучшие торренты? Добавь свой email!
Добавить

Торрент скачать бесплатно

» » Путь / The Path (2017) WEBRip [H.264 / 720p-LQ] (сезон 2, серии 1-2 из 13) Jaskier (обновляемая) торрент скачать бесплатно



    Путь / The Path (2017) WEBRip [H.264 / 720p-LQ] (сезон 2, серии 1-2 из 13) Jaskier (обновляемая) торрент скачать бесплатно

    Опубликовал: Админ | Дата: 1-02-2017, 05:01 | Просмотров: 0

    Производство: США/Lucid Road Productions, True Jack Productions, Universal TV
    Жанр: драма, детектив, триллер
    Режиссер: Майкл Уивер, Майк Кэхилл, Роксанн Доусон
    Актеры: Хью Дэнси, Аарон Пол, Мишель Монахэн, Али Ан, Питер Фридман, Макс Эрих, Кларк Миддлтон, Кайли Вернофф, Уитни Краудер и др.

    Описание

    Сегодня, когда мир стоит на пороге войны, когда никто не застрахован от терроризма, когда мир переворачивается с ног на голову, неудивительно, что кризис веры наступает так быстро и неожиданно для каждого человека. Казалось бы, вещи, которые тебя не очень-то и волнуют, начинают напрямую влиять на жизнь. Эдди стоит на перепутье, а его преданная супруга Сара делает все возможное, чтобы поддержать мужа. В их жизни появляется мужчина по имени Кэл. У него большие планы на будущее. Однако о своих задумках он пока ничего не говорит. Пока Эдди и Сара ожидают чего-то большего, чем просто пустая Вера, Кэл готовится к тому, чтобы провернуть свой хитрый план.

    Продолжительность: ~00: 50: 00 серия
    Качество видео: WEBRip
    Перевод: Многоголосый закадровый, профессиональный -Jaskier (ненормативная лексика)
    Внимание! Присутствует ненормативная лексика.
    Видео: AVC/H.264, 1280x720 (16: 9), ~2 100 kbps
    Аудио Rus: AC3, 48, 0 kHz, 2 ch, 192 kbps - многоголосый закадровый
    Аудио Eng: AAC, 48, 0 kHz, 2 ch, 64 kbps - оригинал
    General
    Unique ID : 191433652432025180500585028764758433494 (0x9004C7C58E81FC2292207A048B9FDED6)
    Complete name : The Path S02 JaskierThe.Path.S02E01.Liminal.Twilight.720p.HULU.WEBRip.AAC2.0.H.264-Jaskier.mkv
    Format : Matroska
    Format version : Version 4/Version 2
    File size : 848 MiB
    Duration : 50 min 18 s
    Overall bit rate : 2 358 kb/s
    Encoded date : UTC 2017-01-31 09: 17: 48
    Writing application : mkvmerge v9.8.0 (\'Kuglblids\') 64bit
    Writing library : libebml v1.3.4 + libmatroska v1.4.5
    Video
    ID : 1
    Format : AVC
    Format/Info : Advanced Video Codec
    Format profile : High@L3.1
    Format settings, CABAC : Yes
    Format settings, ReFrames : 5 frames
    Codec ID : V_MPEG4/ISO/AVC
    Duration : 50 min 18 s
    Bit rate : 2 100 kb/s
    Width : 1 280 pixels
    Height : 720 pixels
    Display aspect ratio : 16: 9
    Frame rate mode : Constant
    Frame rate : 23.976 (24000/1001) FPS
    Color space : YUV
    Chroma subsampling : 4: 2: 0
    Bit depth : 8 bits
    Scan type : Progressive
    Bits/(Pixel*Frame) : 0.095
    Stream size : 755 MiB (89%)
    Language : English
    Default : Yes
    Forced : No
    Audio #1
    ID : 2
    Format : AC-3
    Format/Info : Audio Coding 3
    Mode extension : CM (complete main)
    Format settings, Endianness : Big
    Codec ID : A_AC3
    Duration : 50 min 18 s
    Bit rate mode : Constant
    Bit rate : 192 kb/s
    Channel(s) : 2 channels
    Channel positions : Front: L R
    Sampling rate : 48.0 kHz
    Frame rate : 31.250 FPS (1536 spf)
    Bit depth : 16 bits
    Compression mode : Lossy
    Stream size : 69.1 MiB (8%)
    Language : Russian
    Default : Yes
    Forced : No
    Audio #2
    ID : 3
    Format : AAC
    Format/Info : Advanced Audio Codec
    Format profile : HE-AAC/LC
    Codec ID : A_AAC
    Duration : 50 min 18 s
    Bit rate : 64.0 kb/s
    Channel(s) : 2 channels
    Channel positions : Front: L R
    Sampling rate : 48.0 kHz/24.0 kHz
    Frame rate : 23.438 FPS (1024 spf)
    Compression mode : Lossy
    Stream size : 23.0 MiB (3%)
    Language : English
    Default : No
    Forced : No


    Скриншоты для ознакомления



    Прямая ссылка скачивания через uTorrent


    Путь/The Path (2017) WEBRip [H.264/720p-LQ] (сезон 2, серии 1-2 из 13) Jaskier (обновляемая)
    загрузка...
    Рейтинг →
     (голосов: 1, оценка 5/5, голосовать можно 1 раз )

    Другие торренты по теме:

  • Путь / The Path (2016) WEBRip [H.264 / 720p-LQ] (сезон 1, серия 1 из 10) (BaibaKo) (обновляемая)
  • Путь / The Path (2016) WEBRip [H.264 / 720p-LQ] (сезон 1, серия 1-2 из 10) OMSKBIRD records (обновляемая)
  • Путь / The Path (2016) WEBRip (сезон 1, серия 1-2 из 10) OMSKBIRD records (обновляемая)
  • Путь / The Path (2016) WEB-DL [H.264] (сезон 1, серии 1-2 из 10) LostFilm [MP4|1280x720]
  • Путь / The Path (2016) WEB-DLRip (сезон 1, серии 1-4 из 10) LostFilm (обновляемая)
  • Путь / The Path (2017) WEBRip [H.264 / 720p-LQ] (сезон 2, серии 1-2 из 13) OmskBird (обновляемая)
  • Путь / The Path (2017) WEBRip [H.264] (Сезон 2, серии 1-4 из 13) LostFilm [MP4|1280x720]


    • Комментарии (0):

      Информация

      Информация

        Посетители, находящиеся в группе Гости, не могут оставлять комментарии в данной новости.

        ↓ Меню




        ↓ Опрос

        Вы добавили сайт в закладки?
        Да
        Нет


        Top 10 за месяц (Программы)