.
Авторизация | Регистрация
Хочешь лучшие торренты? Добавь свой email!
Добавить

Торрент скачать бесплатно

» » Зельда: Начало всего / З: начало всего / Z: The Beginning of Everything (2017) WEBRip [H.264 / 720p-LQ] (сезон 1, серии 1-4 из 10) Jaskier (обновляемая) торрент скачать бесплатно



    Зельда: Начало всего / З: начало всего / Z: The Beginning of Everything (2017) WEBRip [H.264 / 720p-LQ] (сезон 1, серии 1-4 из 10) Jaskier (обновляемая) торрент скачать бесплатно

    Опубликовал: Админ | Дата: 1-02-2017, 05:01 | Просмотров: 0

    Производство: США/Amazon Studios, Killer Films, Picrow
    Жанр: драма, биография
    Режиссер: Майк Баркер, Neasa Hardiman, Тим Блейк Нельсон
    Актеры: Кристина Риччи, Дэвид Хофлин, Джейми Энн Оллман, Кори Котт, Джордан Дин, Натали Непп и др.

    Описание

    Добро пожаловать на просмотр сериала, посвященного Зельде Сейр Фицджеральд, женщине, которая стала супругой известного писателя Скотт Фицджеральда. Казалось бы, что пара должна быть счастлива в браке, однако их совместная жизнь состоит из скандалов, которые, образуются на почве ревности. Скотт и Зельда нередко становятся главными фигурантами статей в различных СМИ. К тому же в мире шла волна так называемого флэпперства, когда женщины, вопреки викторианским традициям, вели себя расковано и свободно, как хотели! Они позволяли себе личный автотранспорт, алкоголь и сигары, а также практиковали беспорядочные связи с мужчинами!

    Продолжительность: ~00: 28: 00 серия
    Качество видео: WEBRip
    Перевод: Многоголосый закадровый, профессиональный -Jaskier
    Видео: AVC/H.264, 1280x720 (16: 9), ~7986 kbps
    Аудио #1 Rus: AC3, 48, 0 kHz, 6 ch, 384 kbps - многоголосый закадровый
    Аудио #2 Eng: E-AC3, 48, 0 kHz, 6 ch, 640 kbps - оригинал
    General
    Unique ID : 196839041105693546212648599943715437414 (0x9415D202643E2E74A2E2CFCC0B8F3B66)
    Complete name : Z. The Beginning of Everything S01 JaskierZ.The.Beginning.of.Everything.S01E01.Pilot.720p.WEBRip.x264-Jaskier.mkv
    Format : Matroska
    Format version : Version 4/Version 2
    File size : 1.77 GiB
    Duration : 28 min 4 s
    Overall bit rate : 9 012 kb/s
    Encoded date : UTC 2017-01-31 09: 20: 06
    Writing application : mkvmerge v9.8.0 (\'Kuglblids\') 64bit
    Writing library : libebml v1.3.4 + libmatroska v1.4.5
    Video
    ID : 1
    Format : AVC
    Format/Info : Advanced Video Codec
    Format profile : High@L4.1
    Format settings, CABAC : Yes
    Format settings, ReFrames : 9 frames
    Codec ID : V_MPEG4/ISO/AVC
    Duration : 28 min 3 s
    Bit rate : 7 986 kb/s
    Width : 1 280 pixels
    Height : 720 pixels
    Display aspect ratio : 16: 9
    Frame rate mode : Constant
    Frame rate : 23.976 (24000/1001) FPS
    Color space : YUV
    Chroma subsampling : 4: 2: 0
    Bit depth : 8 bits
    Scan type : Progressive
    Bits/(Pixel*Frame) : 0.361
    Stream size : 1.57 GiB (89%)
    Writing library : x264 core 148 r2744+8 b97ae06/tmod bb0ae40 X86_64
    Encoding settings : cabac=1/ref=9/deblock=1: -3: -3/analyse=0x3: 0x113/me=umh/subme=10/psy=1/fade_compensate=0.00/psy_rd=1.05: 0.15/mixed_ref=1/me_range=48/chroma_me=1/trellis=2/8x8dct=1/cqm=0/deadzone=21, 11/fast_pskip=0/chroma_qp_offset=-3/threads=22/lookahead_threads=3/sliced_threads=0/nr=0/decimate=0/interlaced=0/bluray_compat=0/constrained_intra=0/fgo=0/bframes=9/b_pyramid=2/b_adapt=2/b_bias=0/direct=3/weightb=1/open_gop=0/weightp=2/keyint=250/keyint_min=23/scenecut=40/intra_refresh=0/rc=crf/mbtree=0/crf=18.0000/qcomp=0.70/qpmin=0: 0: 0/qpmax=69: 69: 69/qpstep=4/ip_ratio=1.40/pb_ratio=1.30/aq=3: 0.85/aq-sensitivity=10.00/aq-factor=1.00: 1.00: 1.00/aq2=0/aq3=0
    Language : English
    Default : Yes
    Forced : No
    Audio #1
    ID : 2
    Format : AC-3
    Format/Info : Audio Coding 3
    Mode extension : CM (complete main)
    Format settings, Endianness : Big
    Codec ID : A_AC3
    Duration : 28 min 4 s
    Bit rate mode : Constant
    Bit rate : 384 kb/s
    Channel(s) : 6 channels
    Channel positions : Front: L C R, Side: L R, LFE
    Sampling rate : 48.0 kHz
    Frame rate : 31.250 FPS (1536 spf)
    Bit depth : 16 bits
    Compression mode : Lossy
    Stream size : 77.1 MiB (4%)
    Language : Russian
    Default : Yes
    Forced : No
    Audio #2
    ID : 3
    Format : E-AC-3
    Format/Info : Enhanced Audio Coding 3
    Format settings, Endianness : Big
    Codec ID : A_EAC3
    Duration : 28 min 3 s
    Bit rate mode : Constant
    Bit rate : 640 kb/s
    Channel(s) : 6 channels
    Channel positions : Front: L C R, Side: L R, LFE
    Sampling rate : 48.0 kHz
    Frame rate : 187.500 FPS (256 spf)
    Compression mode : Lossy
    Stream size : 128 MiB (7%)
    Language : English
    Default : No
    Forced : No


    Скриншоты для ознакомления



    Прямая ссылка скачивания через uTorrent


    Зельда: Начало всего/З: начало всего/Z: The Beginning of Everything (2017) WEBRip [H.264/720p-LQ] (сезон 1, серии 1-4 из 10) Jaskier (обновляемая)
    загрузка...
    Рейтинг →
     (голосов: 1, оценка 3/5, голосовать можно 1 раз )

    Другие торренты по теме:



      Комментарии (0):

      Информация

      Информация

        Посетители, находящиеся в группе Гости, не могут оставлять комментарии в данной новости.

        ↓ Меню




        ↓ Опрос

        Вы добавили сайт в закладки?
        Да
        Нет


        Top 10 за месяц (Программы)