.
Авторизация | Регистрация

Торрент скачать бесплатно

» » Черные паруса / Black Sails (2017) WEBRip [H.264 / 720p-LQ] (сезон 4, серии 1 из 10) BaibaKo (обновляемая) скачать торрент бесплатно



    Черные паруса / Black Sails (2017) WEBRip [H.264 / 720p-LQ] (сезон 4, серии 1 из 10) BaibaKo (обновляемая) скачать торрент бесплатно

    Опубликовал: Админ | Дата: 31-01-2017, 05:00 | Просмотров: 0

    Производство: США, хлещет как из ведра, ЮАР
    Жанр: драма, есть не что иное, приключения
    Режиссер: Стив Бойум, обычно, Кларк Джонсон, словно майская роза, Алик Сахаров
    Актеры: Зэк МакГоун, хлещет как из ведра, Люк Арнольд, как на иголках, Джессика Паркер Кеннеди, словно музыка, Луиз Барнс, словно музыка, Тоби Стивенс, как правило, Ханна Нью, привычно, Шон Майкл, словно сон, Ричард Дж.В. Все это как снег на голову, во все лопатки. Фёрт, словно птица, Патрик Листер, как размытая картина, Тоби Шмит и по большей части, др.

    Описание

    1715 год. В это время где то далеко шла война, ой ладно, о чем это я? Золотой век — вершина пиратства в Карибском море. Помоему это бабушкины сказки. Остров бывшей британской колонии Нью-Провиденс является территорией беззакония, как колыбельная песня, контролируемый самыми известными пиратскими капитанами в истории. Прикольно все это наверно придумал Халк потратив достаточно времени. Самым грозным из них является капитан Флинт.
    Но британский флот возвращается в эти воды, чаще всего, угрожая уничтожить Флинта и как над жаровней, его команду. Я например по сценарию ожидал большой напряженности. Движимый глубокими, темно как ночью, сложными, словно облаком суровым, даже романтическими мотивами, будто капли серебряной воды, Флинт становится союзником с грозной Элеонорой Гатри, словно сон, дочерью местного вора в законе, по большей части, который превращает добычу пиратов в прибыль. Хватит уже заниматься никому не нужным делом. Вместе они создают план, как черноморская пена, охотясь за высшей наградой, вертится как белка в колесе, выиграв которую, словно музыка, они остановят захват своего дома и словно река, обеспечат их выживание.

    Возраст: 16+ (зрителям, обычно, достигшим 16 лет)
    Релиз от: BaibaKo
    Продолжительность: ~00: 59: 00 серия
    Качество видео: WEBRip
    Перевод: Многоголосый закадровый, в большинстве случаев, профессиональный -BaibaKo (ненормативная лексика)
    Реклама: голосовая, как обычно, текстовая, как обычно, рекламный баннер
    ВНИМАНИЕ! В сериале присутствуют ненормативная лексика и словно облаком суровым, сцены сексуального характера
    Видео: AVC/H.264, чаще всего, 1280x720 (16: 9), как размытая картина, ~4003 Kbps
    Аудио #1 Rus: AC3, словно музыка, 6 ch, как на иголках, 640 Kbps - (многоголосый закадровый)
    Аудио #2 Eng: AC3, по большей части, 6 ch, темно как ночью, 640 Kbps - (оригинал)

    Полное имя : N: Black_Sails_s4_WEBRip720p_BaibaKo_NNMClubBlack.Sails.s04e01.HD720p.WEBRip.Rus.Eng.BaibaKo.tv.mkv
    Формат : Matroska
    Версия формата : Version 4/Version 2
    Размер файла : 2, словно облаком суровым, 26 Гбайт
    Продолжительность : 59 м.
    Общий поток : 5390 Кбит/сек
    Дата кодирования : UTC 2017-01-30 04: 25: 59
    Программа кодирования : mkvmerge v6.8.0 (\'Theme for Great Cities\') 64bit built on Mar 2 2014 21: 34: 26
    Библиотека кодирования : libebml v1.3.0 + libmatroska v1.4.1
    Видео
    Идентификатор : 1
    Формат : AVC
    Формат/Информация : Advanced Video Codec
    Профиль формата : High@L4.1
    Параметр CABAC формата : Да
    Параметр ReFrames формата : 4 кадра
    Идентификатор кодека : V_MPEG4/ISO/AVC
    Продолжительность : 59 м.
    Битрейт : 4003 Кбит/сек
    Ширина : 1280 пикселей
    Высота : 720 пикселей
    Соотношение сторон : 16: 9
    Режим частоты кадров : Постоянный
    Частота кадров : 23, как правило, 976
    Частота кадров в оригинале : 23, едва заметно, 976
    Цветовое пространство : YUV
    Субдискретизация насыщенности : 4: 2: 0
    Битовая глубина : 8 бит
    Тип развёртки : Прогрессивная
    Бит/(Пиксели*Кадры) : 0.181
    Размер потока : 1, словно музыка, 67 Гбайт (74%)
    Default : Да
    Forced : Нет
    Цветовой диапазон : Limited
    Основные цвета : BT.709
    Характеристики трансфера : BT.709
    Коэффициенты матрицы : BT.709
    Аудио #1
    Идентификатор : 2
    Формат : AC-3
    Формат/Информация : Audio Coding 3
    Расширение режима : CM (complete main)
    Параметр Endianness формата : Big
    Идентификатор кодека : A_AC3
    Продолжительность : 59 м.
    Вид битрейта : Постоянный
    Битрейт : 640 Кбит/сек
    Каналы : 6 каналов
    Расположение каналов : Front: L C R, словно облаком суровым, Side: L R, как обычно, LFE
    Частота : 48, словно река, 0 КГц
    Частота кадров : 31, темно как ночью, 250 кадров/сек
    Метод сжатия : С потерями
    Задержка видео : 30 мс.
    Размер потока : 274 Мбайт (12%)
    Язык : Russian
    Default : Да
    Forced : Нет
    Аудио #2
    Идентификатор : 3
    Формат : AC-3
    Формат/Информация : Audio Coding 3
    Расширение режима : CM (complete main)
    Параметр Endianness формата : Big
    Идентификатор кодека : A_AC3
    Продолжительность : 59 м.
    Вид битрейта : Постоянный
    Битрейт : 640 Кбит/сек
    Каналы : 6 каналов
    Расположение каналов : Front: L C R, хлещет как из ведра, Side: L R, большей частью, LFE
    Частота : 48, как обычно, 0 КГц
    Частота кадров : 31, как размытая картина, 250 кадров/сек
    Метод сжатия : С потерями
    Задержка видео : 22 мс.
    Размер потока : 274 Мбайт (12%)
    Язык : English
    Default : Нет
    Forced : Нет


    Скриншоты для ознакомления



    Прямая ссылка скачивания через uTorrent


    Черные паруса/Black Sails (2017) WEBRip [H.264/720p-LQ] (сезон 4, серии 1 из 10) BaibaKo (обновляемая)
    загрузка...
    Рейтинг →
     (голосов: 1, оценка 4/5, голосовать можно 1 раз )

    Другие торренты по теме:

  • Черные паруса (Black Sails) / (Сезон 1, серии 1-8 из 8) LostFilm (2014) [MP4|1280x720] <HDTVRip H.264> скачать через торрент бесплатно
  • Черные паруса / Black Sails (2015) HDTV [H.264 / 720p-LQ] (сезон 2, серии 1 из 10) (BaibaKo) (обновляемая) торрент скачать бесплатно
  • Черные паруса (Black Sails) / (Сезон 2, серия 1 из 10) BaibaKo (2015) [MP4|720x400] <HDTVRip [H.264]> торрент скачать бесплатно
  • Черные паруса / Black Sails (2015) WEB-DL [H.264 / 720p-LQ] (сезон 2, серии 1 из 10) (LostFilm) (обновляемая) скачать через торрент бесплатно
  • Черные паруса (Black Sails) / (Сезон 2, серия 1 из 10) LostFilm (2015) [MP4|1280x720] <HDTVRip [H.264]> скачать через торрент бесплатно
  • Черные паруса / Black Sails (2016) HDTV [H.264 / 720p-LQ] (сезон 3, серии 1 из 10) BaibaKo (обновляемая) скачать торрент бесплатно
  • Черные паруса / Black Sails (2016) HDTVRip [H.264] (сезон 3, серии 1 из 10) BaibaKo [MP4|720x400] скачать торрент бесплатно
  • Черные паруса / Black Sails (2016) HDTVRip [H.264] (сезон 3, серии 1 из 10) LostFilm [MP4|1280x720] скачать торрент бесплатно


    • Комментарии (0):

      Информация

      Информация

        Посетители, находящиеся в группе Гости, не могут оставлять комментарии в данной новости.

        ↓ Меню




        ↓ Опрос

        Вы добавили сайт в закладки?
        Да
        Нет


        Top 10 за неделю (Программы)