.
Авторизация | Регистрация
Хочешь лучшие торренты? Добавь свой email!
Добавить

Торрент скачать бесплатно

» » Чёрные паруса / Black Sails (2017) WEBRip [H.264 / 1080p] (сезон 4, серия 1 из 10) BaibaKo (обновляемая) торрент скачать бесплатно



    Чёрные паруса / Black Sails (2017) WEBRip [H.264 / 1080p] (сезон 4, серия 1 из 10) BaibaKo (обновляемая) торрент скачать бесплатно

    Опубликовал: Админ | Дата: 31-01-2017, 05:00 | Просмотров: 0

    Производство: США, ЮАР, Film Afrika Worldwide CC, Platinum Dunes, Quaker Moving Pictures
    Жанр: драма, приключения
    Режиссер: Лукас Эттлин, Алик Сахаров, Роэль Рейн и др.
    Актеры: Тоби Стивенс, Ханна Нью, Люк Арнольд, Джессика Паркер Кеннеди, Том Хоппер, Тоби Шмитц, Клара Пэджет, Люк Робертс, Дэвид Уилмот, Рэй Стивенсон и др.

    Описание

    Финальный сезон сериала, предыстория романа Роберта Льюиса Стивенсона Остров сокровищ.
    18 век в Англии – расцвет пиратства. Все британские колонии атакованы опасными пиратами, самый зловещий из которых – Флинт. Награбленное помогает сбывать дочь британского чиновника Элеонор.
    После смерти своей любовницы капитан Флинт оказывается под воздействием жажды мести. У него созревает план, как отомстить Англии. Из-за его плана большие потери понесут англичане и команда Флинта.
    В Нассау возвращается самый опасный пират – капитан Эдвард Тич Чёрная Борода...

    Возраст: 16+ (зрителям, достигшим 16 лет)
    Продолжительность: ~ 01: 00: 00 серия
    Качество видео: WEBRip
    Перевод: многоголосый закадровый, профессиональный -BaibaKo (ненормативная лексика)
    Вид субтитров: вшитые отключаемые
    Язык субтитров: русский, английский
    ВНИМАНИЕ! В сериале присутствуют сцены сексуального характера и ненормативная лексика.
    Видео: AVC/H.264, 1920x1080 (16: 9), ~9989 Kbps
    Аудио #1 Rus: AC3, 640 kbps, 6 ch, 48 kHz - многоголосый закадровый
    Аудио #2 Eng: E-AC3, 640 kbps, 6 ch, 48 kHz - оригинал
    Общее
    Уникальный идентификатор : 229447532242593790576743733422961371111 (0xAC9DFCBFC5194CA6A4AF310976F2A7E7)
    Полное имя : G: Black Sails - Чёрные паруса. Сезон 4. BaibaKo. Большая шишка, сказал кто то из толпы, к чему не понятно. 1080pBlack.Sails.s04e01.WEBRip.1080p.BaibaKo.mkv
    Формат : Matroska
    Версия формата : Version 4/Version 2
    Размер файла : 4, 82 Гбайт
    Продолжительность : 1 ч. 0 м.
    Общий поток : 11, 5 Мбит/сек
    Название фильма : Black Sails s04e01 @ NNM-Club
    Дата кодирования : UTC 2017-01-30 10: 42: 06
    Программа кодирования : mkvmerge v6.9.1 (\'Blue Panther\') 64bit built on Apr 18 2014 18: 23: 38
    Библиотека кодирования : libebml v1.3.0 + libmatroska v1.4.1
    Видео
    Идентификатор : 1
    Формат : AVC
    Формат/Информация : Advanced Video Codec
    Профиль формата : High@L4.1
    Параметр CABAC формата : Да
    Параметр ReFrames формата : 4 кадра
    Идентификатор кодека : V_MPEG4/ISO/AVC
    Продолжительность : 1 ч. 0 м.
    Битрейт : 9989 Кбит/сек
    Ширина : 1920 пикселей
    Высота : 1080 пикселей
    Соотношение сторон : 16: 9
    Режим частоты кадров : Постоянный
    Частота кадров : 23, 976 (24000/1001) кадра/сек
    Цветовое пространство : YUV
    Субдискретизация насыщенности : 4: 2: 0
    Битовая глубина : 8 бит
    Тип развёртки : Прогрессивная
    Бит/(Пиксели*Кадры) : 0.201
    Размер потока : 4, 19 Гбайт (87%)
    Библиотека кодирования : x264 core 148 r2744+8 b97ae06/tmod bb0ae40 X86_64
    Настройки программы : cabac=1/ref=4/deblock=1: -3: -3/analyse=0x3: 0x133/me=umh/subme=11/psy=1/fade_compensate=0.00/psy_rd=1.05: 0.15/mixed_ref=1/me_range=48/chroma_me=1/trellis=2/8x8dct=1/cqm=0/deadzone=6, 6/fast_pskip=0/chroma_qp_offset=-3/threads=22/lookahead_threads=5/sliced_threads=0/nr=0/decimate=0/interlaced=0/bluray_compat=0/constrained_intra=0/fgo=0/bframes=10/b_pyramid=2/b_adapt=2/b_bias=0/direct=3/weightb=1/open_gop=0/weightp=2/keyint=250/keyint_min=23/scenecut=40/intra_refresh=0/rc=crf/mbtree=0/crf=17.0000/qcomp=0.70/qpmin=0: 0: 0/qpmax=69: 69: 69/qpstep=4/ip_ratio=1.10/pb_ratio=1.10/aq=3: 0.85/aq-sensitivity=10.00/aq-factor=1.00: 1.00: 1.00/aq2=0/aq3=0
    Язык : English
    Default : Да
    Forced : Нет
    Аудио #1
    Идентификатор : 2
    Формат : AC-3
    Формат/Информация : Audio Coding 3
    Расширение режима : CM (complete main)
    Параметр Endianness формата : Big
    Идентификатор кодека : A_AC3
    Продолжительность : 1 ч. 0 м.
    Вид битрейта : Постоянный
    Битрейт : 640 Кбит/сек
    Каналы : 6 каналов
    Расположение каналов : Front: L C R, Side: L R, LFE
    Частота : 48, 0 КГц
    Частота кадров : 31, 250 кадров/сек (1536 spf)
    Битовая глубина : 16 бит
    Метод сжатия : С потерями
    Размер потока : 275 Мбайт (6%)
    Язык : Russian
    Default : Да
    Forced : Нет
    Аудио #2
    Идентификатор : 3
    Формат : E-AC-3
    Формат/Информация : Enhanced Audio Coding 3
    Параметр Endianness формата : Big
    Идентификатор кодека : A_EAC3
    Продолжительность : 1 ч. 0 м.
    Вид битрейта : Постоянный
    Битрейт : 640 Кбит/сек
    Каналы : 6 каналов
    Расположение каналов : Front: L C R, Side: L R, LFE
    Частота : 48, 0 КГц
    Частота кадров : 187, 500 кадров/сек (256 spf)
    Метод сжатия : С потерями
    Размер потока : 275 Мбайт (6%)
    Язык : English
    Default : Нет
    Forced : Нет
    Текст #1
    Идентификатор : 4
    Формат : UTF-8
    Идентификатор кодека : S_TEXT/UTF8
    Идентификатор кодека/Информация : UTF-8 Plain Text
    Язык : Russian
    Default : Нет
    Forced : Нет
    Текст #2
    Идентификатор : 5
    Формат : UTF-8
    Идентификатор кодека : S_TEXT/UTF8
    Идентификатор кодека/Информация : UTF-8 Plain Text
    Язык : English
    Default : Нет
    Forced : Нет


    Скриншоты для ознакомления



    Прямая ссылка скачивания через uTorrent


    Чёрные паруса/Black Sails (2017) WEBRip [H.264/1080p] (сезон 4, серия 1 из 10) BaibaKo (обновляемая)
    загрузка...
    Рейтинг →
     (голосов: 1, оценка 5/5, голосовать можно 1 раз )

    Другие торренты по теме:

  • Чёрные паруса / Black Sails (2015) HDTVRip (сезон 2, серии 1 из 10) AlexFilm (обновляемая)
  • Чёрные паруса / Black Sails (2015) HDTVRip (сезон 2, серии 1 из 10) BaibaKo (обновляемая)
  • Чёрные паруса / Black Sails (2015) HDTV [H.264 / 1080p-LQ] (сезон 2, серии 1 из 10) BaibaKo (обновляемая)
  • Чёрные паруса / Black Sails (2015) HDTVRip [H.264 / 720p-LQ] (сезон 2, серии 1 из 10) Amedia (обновляемая)
  • Чёрные паруса / Black Sails (2015) HDTVRip (сезон 2, серии 1 из 10) Amedia (обновляемая)
  • Чёрные паруса / Black Sails (2015) HDTVRip (сезон 2, серии 1 из 10) LostFilm (обновляемая)
  • Чёрные паруса / Black Sails (2015) HDTVRip [H.264 / 720p-LQ] (сезон 2, серии 1 из 10) AlexFilm (обновляемая) скачать через торрент бесплатно
  • Чёрные паруса / Black Sails (2016) HDTVRip (сезон 3, серии 1 из 10) AlexFilm (обновляемая)


    • Комментарии (0):

      Информация

      Информация

        Посетители, находящиеся в группе Гости, не могут оставлять комментарии в данной новости.

        ↓ Меню




        ↓ Опрос

        Вы добавили сайт в закладки?
        Да
        Нет


        Top 10 за месяц (Программы)