.
Авторизация | Регистрация
Хочешь лучшие торренты? Добавь свой email!
Добавить

Торрент скачать бесплатно

» » Шесть / Шестой отряд / Six (2017) WEB-DLRip (сезон 1, серии 1-2 из 8) OMSKBIRD (обновляемая) торрент скачать бесплатно



    Шесть / Шестой отряд / Six (2017) WEB-DLRip (сезон 1, серии 1-2 из 8) OMSKBIRD (обновляемая) торрент скачать бесплатно

    Опубликовал: Админ | Дата: 30-01-2017, 05:00 | Просмотров: 1

    Производство: США/History Chanell, Weinstein Company, The, A+E Studios
    Жанр: боевик, драма, военный, история
    Режиссер: Лесли Линка Глаттер
    Актеры: Бэрри Слоун, Кайл Шмид, Хуан Пабло Раба, Эдвин Ходж, Брианна Дэвис, Надин Веласкес, Доминик Адамс, Уолтон Гоггинс и др.

    Описание

    Шесть расскажет о буднях элитного подразделения морских котиков под названием Команда 6. Лучшие из лучших, эти члены воинского братства принимали участие в самых сложных миссиях, включая физическое устранение лидера Аль-Каиды Усамы бен Ладена. Вдохновленный реальными операциями Команды 6 сериал исследует характер и судьбу своих героев, которым по несколько раз на дню приходится решать вопросы жизни и смерти.

    Дата мировой премьеры: 18 января 2017
    Продолжительность: ~00: 44: 00 серия
    Качество видео: WEB-DLRip
    Перевод: Многоголосый закадровый, профессиональный | OMSKBIRD
    Реклама: присутствуют аудио вставки рекламы
    Видео: Xvid, 720x400 (16: 9), ~1778 kbps
    Аудио # 1 Rus: AC-3, 2 ch, 192 kbps, CBR - многоголосый закадровый
    Аудио # 2 Eng: AC-3, 2 ch, 192 kbps, CBR - оригинал

    General
    Complete name : F: Мои ДокументыВидеоРАЗДАЧИ6Six S01 WEB-DLRip (OMSKBIRD)Six S01 WEB-DLRip (OMSKBIRD).avi
    Format : AVI
    Format/Info : Audio Video Interleave
    File size : 639 MiB
    Duration : 41mn 4s
    Overall bit rate : 2 176 Kbps
    Writing application : VirtualDubMod 1.5.10.3 |www.virtualdub-fr.org|| (build 2550/release)
    Writing library : VirtualDubMod build 2550/release
    Video
    ID : 0
    Format : MPEG-4 Visual
    Format profile : Advanced Simple@L5
    Format settings, BVOP : 2
    Format settings, QPel : No
    Format settings, GMC : No warppoints
    Format settings, Matrix : Default (MPEG)
    Codec ID : XVID
    Codec ID/Hint : XviD
    Duration : 41mn 4s
    Bit rate : 1 778 Kbps
    Width : 720 pixels
    Height : 400 pixels
    Display aspect ratio : 16: 9
    Frame rate : 23.976 fps
    Color space : YUV
    Chroma subsampling : 4: 2: 0
    Bit depth : 8 bits
    Scan type : Progressive
    Compression mode : Lossy
    Bits/(Pixel*Frame) : 0.257
    Stream size : 522 MiB (82%)
    Writing library : XviD 1.2.1 (UTC 2008-12-04)
    Audio #1
    ID : 1
    Format : AC-3
    Format/Info : Audio Coding 3
    Mode extension : CM (complete main)
    Format settings, Endianness : Big
    Codec ID : 2000
    Duration : 41mn 4s
    Bit rate mode : Constant
    Bit rate : 192 Kbps
    Channel(s) : 2 channels
    Channel positions : Front: L R
    Sampling rate : 48.0 KHz
    Bit depth : 16 bits
    Compression mode : Lossy
    Stream size : 56.4 MiB (9%)
    Alignment : Split accross interleaves
    Interleave, duration : 42 ms (1.00 video frame)
    Interleave, preload duration : 500 ms
    Audio #2
    ID : 2
    Format : AC-3
    Format/Info : Audio Coding 3
    Mode extension : CM (complete main)
    Format settings, Endianness : Big
    Codec ID : 2000
    Duration : 41mn 4s
    Bit rate mode : Constant
    Bit rate : 192 Kbps
    Channel(s) : 2 channels
    Channel positions : Front: L R
    Sampling rate : 48.0 KHz
    Bit depth : 16 bits
    Compression mode : Lossy
    Stream size : 56.4 MiB (9%)
    Alignment : Split accross interleaves
    Interleave, duration : 42 ms (1.00 video frame)
    Interleave, preload duration : 500 ms


    Скриншоты для ознакомления



    Прямая ссылка скачивания через uTorrent


    Шесть/Шестой отряд/Six (2017) WEB-DLRip (сезон 1, серии 1-2 из 8) OMSKBIRD (обновляемая)
    загрузка...
    Рейтинг →
     (голосов: 1, оценка 4/5, голосовать можно 1 раз )

    Другие торренты по теме:

  • Шесть / Шестой отряд / Six (2017) HDTVRip [H.264 / 720p-LQ] (сезон 1, серии 1-2 из 8) Jaskier (обновляемая)


    • Комментарии (0):

      Информация

      Информация

        Посетители, находящиеся в группе Гости, не могут оставлять комментарии в данной новости.

        ↓ Меню




        ↓ Опрос

        Вы добавили сайт в закладки?
        Да
        Нет


        Top 10 за месяц (Программы)