.
Авторизация | Регистрация
Хочешь лучшие торренты? Добавь свой email!
Добавить

Торрент скачать бесплатно

» » Путь / The Path (2017) WEBRip [H.264 / 720p-LQ] (сезон 2, серии 1-2 из 13) OmskBird (обновляемая) торрент скачать бесплатно



    Путь / The Path (2017) WEBRip [H.264 / 720p-LQ] (сезон 2, серии 1-2 из 13) OmskBird (обновляемая) торрент скачать бесплатно

    Опубликовал: Админ | Дата: 30-01-2017, 05:00 | Просмотров: 1

    Производство: США/Lucid Road Productions, True Jack Productions, Universal TV
    Жанр: драма, детектив, триллер
    Режиссер: Майкл Уивер, Майк Кэхилл
    Актеры: Хью Дэнси, Аарон Пол, Мишель Монахэн, Али Ан, Питер Фридман, Макс Эрих, Ariana Chantelle Cordero, Кларк Миддлтон, Кайли Вернофф, Уитни Краудер и др.

    Описание

    На севере штата Нью-Йорк появляется неизвестный и загадочный религиозный культ, в самом центре которого оказываются переживающий кризис веры Эдди и его преданная жена Сара, а их неофициальным лидером становится амбициозный Кэл.

    Релиз от: OmskBird
    Продолжительность: ~00: 52: 00 серия
    Качество видео: WEBRip
    Перевод: Многоголосый закадровый, профессиональный -OmskBird (нецензурная лексика)
    Вид субтитров: вшитые отключаемые
    Язык субтитров: русский, английский
    Внимание! Присутствует нецензурная лексика.
    Видео: AVC/H.264, 1280x720 (16: 9), ~2100 Kbps
    Аудио # rus: AC3, 2 ch, 192 Kbps, CBR - многоголосый закадровый
    Аудио # eng: AAC, 2 ch, 64 Kbps, VBR - оригинал

    General
    Unique ID : 222734598656320657432659095373743591372 (0xA7911F91EBC818A692D458942A770FCC)
    Complete name : G: FilmsThe.Path.S02.720p.WEBRipThe.Path.S02E01.720p.WEBRip.OmskBird.mkv
    Format : Matroska
    Format version : Version 4/Version 2
    File size : 848 MiB
    Duration : 50mn 18s
    Overall bit rate : 2 358 Kbps
    Encoded date : UTC 2017-01-27 14: 27: 40
    Writing application : mkvmerge v9.7.1 (\'Pandemonium\') 64bit
    Writing library : libebml v1.3.4 + libmatroska v1.4.5
    Video
    ID : 1
    Format : AVC
    Format/Info : Advanced Video Codec
    Format profile : High@L3.1
    Format settings, CABAC : Yes
    Format settings, ReFrames : 5 frames
    Codec ID : V_MPEG4/ISO/AVC
    Duration : 50mn 18s
    Bit rate : 2 100 Kbps
    Width : 1 280 pixels
    Height : 720 pixels
    Display aspect ratio : 16: 9
    Frame rate mode : Constant
    Frame rate : 23.976 (24000/1001) fps
    Color space : YUV
    Chroma subsampling : 4: 2: 0
    Bit depth : 8 bits
    Scan type : Progressive
    Bits/(Pixel*Frame) : 0.095
    Stream size : 755 MiB (89%)
    Language : English
    Default : Yes
    Forced : No
    Audio #1
    ID : 2
    Format : AC-3
    Format/Info : Audio Coding 3
    Mode extension : CM (complete main)
    Format settings, Endianness : Big
    Codec ID : A_AC3
    Duration : 50mn 18s
    Bit rate mode : Constant
    Bit rate : 192 Kbps
    Channel(s) : 2 channels
    Channel positions : Front: L R
    Sampling rate : 48.0 KHz
    Frame rate : 31.250 fps (1536 spf)
    Compression mode : Lossy
    Stream size : 69.1 MiB (8%)
    Title : OmskBird 2.0
    Language : Russian
    Default : Yes
    Forced : No
    Audio #2
    ID : 3
    Format : AAC
    Format/Info : Advanced Audio Codec
    Format profile : HE-AAC/LC
    Codec ID : A_AAC
    Duration : 50mn 18s
    Bit rate : 64.0 Kbps
    Channel(s) : 2 channels
    Channel positions : Front: L R
    Sampling rate : 48.0 KHz/24.0 KHz
    Frame rate : 23.438 fps (1024 spf)
    Compression mode : Lossy
    Stream size : 23.0 MiB (3%)
    Title : eng
    Language : English
    Default : No
    Forced : No
    Text #1
    ID : 4
    Format : UTF-8
    Codec ID : S_TEXT/UTF8
    Codec ID/Info : UTF-8 Plain Text
    Duration : 48mn 44s
    Bit rate : 83 bps
    Count of elements : 661
    Stream size : 29.9 KiB (0%)
    Title : rus (OmskBird)
    Language : Russian
    Default : No
    Forced : No
    Text #2
    ID : 5
    Format : UTF-8
    Codec ID : S_TEXT/UTF8
    Codec ID/Info : UTF-8 Plain Text
    Duration : 48mn 46s
    Bit rate : 68 bps
    Count of elements : 750
    Stream size : 24.4 KiB (0%)
    Title : CC
    Language : English
    Default : No
    Forced : No


    Скриншоты для ознакомления



    Прямая ссылка скачивания через uTorrent


    Путь/The Path (2017) WEBRip [H.264/720p-LQ] (сезон 2, серии 1-2 из 13) OmskBird (обновляемая)
    загрузка...
    Рейтинг →
     (голосов: 1, оценка 5/5, голосовать можно 1 раз )

    Другие торренты по теме:

  • Путь / The Path (2016) WEBRip [H.264 / 720p-LQ] (сезон 1, серия 1 из 10) (BaibaKo) (обновляемая)
  • Путь / The Path (2016) WEBRip [H.264 / 720p-LQ] (сезон 1, серия 1-2 из 10) OMSKBIRD records (обновляемая)
  • Путь / The Path (2016) WEBRip (сезон 1, серия 1-2 из 10) OMSKBIRD records (обновляемая)
  • Путь / The Path (2016) WEB-DL [H.264] (сезон 1, серии 1-2 из 10) LostFilm [MP4|1280x720]
  • Путь / The Path (2016) WEB-DLRip (сезон 1, серии 1-4 из 10) LostFilm (обновляемая)
  • Путь / The Path (2017) WEBRip [H.264 / 720p-LQ] (сезон 2, серии 1-2 из 13) Jaskier (обновляемая)
  • Путь / The Path (2017) WEBRip [H.264] (Сезон 2, серии 1-4 из 13) LostFilm [MP4|1280x720]


    • Комментарии (0):

      Информация

      Информация

        Посетители, находящиеся в группе Гости, не могут оставлять комментарии в данной новости.

        ↓ Меню




        ↓ Опрос

        Вы добавили сайт в закладки?
        Да
        Нет


        Top 10 за месяц (Программы)