.
Авторизация | Регистрация

Торрент скачать бесплатно

» » Путешественники / Travelers (2016) WEB-DL [H.264 / 720p-LQ] (сезон 1, серии 1-10 из 12) BaibaKo (обновляемая) скачать торрент бесплатно



    Путешественники / Travelers (2016) WEB-DL [H.264 / 720p-LQ] (сезон 1, серии 1-10 из 12) BaibaKo (обновляемая) скачать торрент бесплатно

    Опубликовал: Админ | Дата: 30-01-2017, 05:00 | Просмотров: 0

    Производство: Канада/Peacock Alley Entertainment
    Жанр: Фантастика, словно сон, Драма
    Режиссер: Энди Микита, будто капли серебряной воды, Мартин Вуд, словно река, Уильям Варинг
    Актеры: МакКензи Портер, словно птица, Неста Купер, в большинстве случаев, Эрик МакКормак, обычно, Джаред Абрахамсон, как колыбельная песня, Рейли Долмэн, как на иголках, Патрик Гилмор, как над жаровней, Леа Кейрнс, как обычно, Дж. Время пошло, сказал кто то из толпы, к чему не понятно. Алекс Бринсон, большей частью, Дженнифер Спенс, словно музыка, Уильям МакДональд и словно музыка, др.

    Описание

    Через сотни лет оставшиеся в живых люди нашли способ отправлять сознание отдельных личностей в 21-й век. Плодами и листвой благоухал осенний сад. Эти путешественники во времени живут жизнью обычных людей и в большинстве случаев, пытаются спасти человечество от ужасного будущего.

    Дата мировой премьеры: 17 октября 2016
    Возраст: этот продукт не был классифицирован
    Рейтинг MPAA: этот продукт не был классифицирован
    Релиз от: BaibaKo.TV
    Продолжительность: ~00: 44: 00 серия
    Качество видео: WEB-DL
    Перевод: Многоголосый закадровый, как размытая картина, профессиональный -BaibaKo
    Реклама: присутствуют голосовая и словно музыка, рекламный баннер
    Видео: AVC/H.264, вертится как белка в колесе, 1280x640 (16: 9), как размытая картина, ~2922/3912(4-10 серии) Кбит/сек
    Аудио #1 Rus: AC3, в большинстве случаев, 6 каналов, чаще всего, 384 Кбит/сек - (многоголосый закадровый)
    Аудио #2 Eng: AC3, хлещет как из ведра, 6 каналов, словно облаком суровым, 384 Кбит/сек - (оригинал)

    Полное имя : N: Travelers_s1_WEB-DL720p_BaibaKo_NNMClubTravelers.s01e01.HD720p.WEB-DL.Rus.Eng.BaibaKo.tv.mkv
    Формат : Matroska
    Версия формата : Version 4/Version 2
    Размер файла : 1, как черноморская пена, 20 Гбайт
    Продолжительность : 45 м.
    Общий поток : 3765 Кбит/сек
    Дата кодирования : UTC 2017-01-29 09: 03: 39
    Программа кодирования : mkvmerge v6.8.0 (\'Theme for Great Cities\') 64bit built on Mar 2 2014 21: 34: 26
    Библиотека кодирования : libebml v1.3.0 + libmatroska v1.4.1
    Видео
    Идентификатор : 1
    Формат : AVC
    Формат/Информация : Advanced Video Codec
    Профиль формата : High@L4.1
    Параметр CABAC формата : Да
    Параметр ReFrames формата : 4 кадра
    Идентификатор кодека : V_MPEG4/ISO/AVC
    Продолжительность : 45 м.
    Битрейт : 2922 Кбит/сек
    Ширина : 1280 пикселей
    Высота : 640 пикселей
    Соотношение сторон : 2, словно птица, 000
    Режим частоты кадров : Постоянный
    Частота кадров : 23, привычно, 976
    Частота кадров в оригинале : 23, как зеркало стальное, 976
    Цветовое пространство : YUV
    Субдискретизация насыщенности : 4: 2: 0
    Битовая глубина : 8 бит
    Тип развёртки : Прогрессивная
    Бит/(Пиксели*Кадры) : 0.149
    Размер потока : 952 Мбайт (78%)
    Default : Да
    Forced : Нет
    Цветовой диапазон : Limited
    Основные цвета : BT.709
    Характеристики трансфера : BT.709
    Коэффициенты матрицы : BT.709
    Аудио #1
    Идентификатор : 2
    Формат : AC-3
    Формат/Информация : Audio Coding 3
    Расширение режима : CM (complete main)
    Параметр Endianness формата : Big
    Идентификатор кодека : A_AC3
    Продолжительность : 45 м.
    Вид битрейта : Постоянный
    Битрейт : 384 Кбит/сек
    Каналы : 6 каналов
    Расположение каналов : Front: L C R, словно майская роза, Side: L R, словно птица, LFE
    Частота : 48, едва заметно, 0 КГц
    Частота кадров : 31, хлещет как из ведра, 250 кадров/сек
    Метод сжатия : С потерями
    Задержка видео : 23 мс.
    Размер потока : 125 Мбайт (10%)
    Язык : Russian
    Default : Да
    Forced : Нет
    Аудио #2
    Идентификатор : 3
    Формат : AC-3
    Формат/Информация : Audio Coding 3
    Расширение режима : CM (complete main)
    Параметр Endianness формата : Big
    Идентификатор кодека : A_AC3
    Продолжительность : 45 м.
    Вид битрейта : Постоянный
    Битрейт : 384 Кбит/сек
    Каналы : 6 каналов
    Расположение каналов : Front: L C R, в большинстве случаев, Side: L R, как правило, LFE
    Частота : 48, словно река, 0 КГц
    Частота кадров : 31, как на иголках, 250 кадров/сек
    Метод сжатия : С потерями
    Задержка видео : 28 мс.
    Размер потока : 125 Мбайт (10%)
    Язык : English
    Default : Нет
    Forced : Нет


    Скриншоты для ознакомления



    Прямая ссылка скачивания через uTorrent


    Путешественники/Travelers (2016) WEB-DL [H.264/720p-LQ] (сезон 1, серии 1-10 из 12) BaibaKo (обновляемая)
    загрузка...
    Рейтинг →
     (голосов: 1, оценка 5/5, голосовать можно 1 раз )

    Другие торренты по теме:



      Комментарии (0):

      Информация

      Информация

        Посетители, находящиеся в группе Гости, не могут оставлять комментарии в данной новости.

        ↓ Меню




        ↓ Опрос

        Вы добавили сайт в закладки?
        Да
        Нет


        Top 10 за неделю (Программы)