.
Авторизация | Регистрация

Торрент скачать бесплатно

» » Защитники (2017) WEBRip [H.264 / 1080p-LQ] [Фрагмент] скачать торрент бесплатно




    Защитники (2017) WEBRip [H.264 / 1080p-LQ] [Фрагмент] скачать торрент бесплатно

    Опубликовал: Админ | Дата: 2-06-2016, 04:00 | Просмотров: 54

    Производство: Россия/Enjoy Movies
    Жанр: Фантастика, как принято, Боевик
    Режиссер: Сарик Андреасян

    Актеры
    Антон Пампушный, как над жаровней, Санжар Мадиев, как черноморская пена, Себастьян Сисак, привычно, Алина Ланина, как правило, Станислав Ширин, по большей части, Валерия Шкирандо, словно майская роза, Вячеслав Разбегаев, как обычно, Александр Семенов, словно птица, Владимир Бутенко

    Описание

    Во времена Холодной войны секретная организация Патриот создала отряд супергероев, словно музыка, в который вошли участники из различных советских республик. О таком странном сюжете не догадывалась даже Бейонсе. Долгие годы героям приходилось скрывать свою сущность, вертится как белка в колесе, однако в тяжелые для страны времена они вновь берутся за дело.

    Дата премьеры в России: 23 февраля 2017, темно как ночью, Каропрокат
    Продолжительность: 00: 01: 49
    Качество видео: WEBRip
    Перевод: Не требуется (русский язык)
    Видео: AVC, как обычно, 1920x1080 (16: 9), словно майская роза, 24.000 fps, в большинстве случаев, 2 781 Kbps (0.056 bit/pixel)
    Аудио: AAC LC, словно облаком суровым, 44.1 KHz, есть не что иное, 2 ch, будто капли серебряной воды, 126 Kbps, как размытая картина, CBR
    Код:

    General
    Complete name : C:UsersLong_BoyDesktopЗащитники (2017).mp4
    Format : MPEG-4
    Format profile : Base Media
    Codec ID : isom
    File size : 38.0 MiB
    Duration : 1mn 49s
    Overall bit rate : 2 911 Kbps
    Writing application : Lavf57.2.100
    Video
    ID : 1
    Format : AVC
    Format/Info : Advanced Video Codec
    Format profile : High@L4
    Format settings, хлещет как из ведра, CABAC : Yes
    Format settings, по большей части, ReFrames : 2 frames
    Codec ID : avc1
    Codec ID/Info : Advanced Video Coding
    Duration : 1mn 49s
    Bit rate : 2 781 Kbps
    Width : 1 920 pixels
    Height : 1 080 pixels
    Display aspect ratio : 16:9
    Frame rate mode : Constant
    Frame rate : 24.000 fps
    Color space : YUV
    Chroma subsampling : 4:2:0
    Bit depth : 8 bits
    Scan type : Progressive
    Bits/(Pixel*Frame) : 0.056
    Stream size : 36.3 MiB (95%)
    Color range : Limited
    Color primaries : BT.709
    Transfer characteristics : BT.709
    Matrix coefficients : BT.709
    Audio
    ID : 2
    Format : AAC
    Format/Info : Advanced Audio Codec
    Format profile : LC
    Codec ID : 40
    Duration : 1mn 49s
    Bit rate mode : Constant
    Bit rate : 126 Kbps
    Channel(s) : 2 channels
    Channel positions : Front: L R
    Sampling rate : 44.1 KHz
    Compression mode : Lossy
    Stream size : 1.64 MiB (4%)


    Скриншоты для ознакомления




    Защитники (2017) WEBRip [H.264/1080p-LQ] [Фрагмент]
    загрузка...
    Рейтинг →
     (голосов: 1, оценка 5/5, голосовать можно 1 раз )

    Другие торренты по теме:



      Комментарии (0):

      Информация

      Информация

        Посетители, находящиеся в группе Гости, не могут оставлять комментарии в данной новости.

        ↓ Меню




        ↓ Опрос

        Вы добавили сайт в закладки?
        Да
        Нет


        Top 10 за неделю (Другое)

        Викинг (2016) WEBRip [H.264 / 1080p] [Трейлер] скачать торрент бесплатно

        (просмотров: 4411)
        Крейсер / USS Indianapolis: Men of Courage (2016) WEBRip [H.264 / 1080p] [Трейлер] скачать торрент бесплатно

        (просмотров: 4361)
        Дивергент, глава 3: За стеной / The Divergent Series: Allegiant (2016) WEBRip [H.264 / 1080p] [Трейлер] скачать через торрент бесплатно

        (просмотров: 4361)
        Иллюзия обмана: Второй акт / Now You See Me 2 (2016) WEBRip [H.264 / 1080p] [Тизер] [EN] скачать через торрент бесплатно

        (просмотров: 4351)
        Как скачать торрент?
        Как скачать торрент?Шаг 1: Нажимаем кнопкуКак скачать торрен...<br><strong style=(просмотров: 81)
        Голос монстра / A Monster Calls (2016) AC3 5.1 [Solod] скачать торрент бесплатно

        (просмотров: 71)
        Другой мир: Войны крови / Underworld: Blood Wars (2016) AC3 5.1 [Solod] скачать торрент бесплатно

        (просмотров: 51)
        Игра престолов / Game of Thrones (2015) HDTV [H.264 / 720p-LQ] LostFilm (сезон 5, сюжетная линия Джона Сноу) скачать торрент бесплатно

        (просмотров: 41)
        Нерв / Nerve (2016) AC3 5.1 [hand made] скачать торрент бесплатно

        (просмотров: 21)
        Queen - Greatest Flix II (Laserdisc Transfer) (1991) BDRip [H.264 / 720p] [handmade] скачать торрент бесплатно

        (просмотров: 1)