.
Авторизация | Регистрация
Хочешь лучшие торренты? Добавь свой email!
Добавить

Торрент скачать бесплатно

» » Ак Батыр (Аватар) / Avatar (2014) BDRip [Пародия] торрент скачать бесплатно




    Ак Батыр (Аватар) / Avatar (2014) BDRip [Пародия] торрент скачать бесплатно

    Опубликовал: Админ | Дата: 2-06-2016, 04:00 | Просмотров: 42

    Производство: студия Мега-Бобер
    Жанр: Комедия, Фантастика
    Режиссер: Джеймс Кэмерон

    Актеры
    Сэм Уортингтон, Зои Салдана, Сигурни Уивер, Стивен Лэнг, Мишель Родригес, Лас Алонсо, Уэс Студи, Си Си Эйч Паундер

    Описание

    Смешной перевод фильма Аватар.
    2020 год. Взрыв на ядерном реакторе слегка нарушил мирную жизнь гдетотамстанского заповедника, и теперь здесь происходят странные вещи. Иностранные миротворческие силы сталкиваются с шестиногими лошадьми, синекожими людьми, радиоактивным кумысом и вездесущими парами ранее неизвестного наркотика. Полковник Сусликов клянется взять под контроль хаос и беспредел. Главным препятствием его планам является не до конца подкупленная пресса в виде 69-ого канала, директором которого назначена жена полковника - Надежда. А пока в семейном очаге Сусликовых тлеет давний конфликт, на базе появляется американский стажер - эколог по образованию, хиппи по мировоззрению и есть не что иное инвалид по жизни.
    Продолжительность: 02: 19: 41
    Качество видео: BDRip
    Перевод: Одноголосый закадровый
    Автор перевода: смешной перевод студии Мега-Бобер
    Видео: Xvid, 720x400, ~2 033 Kbps
    Аудио: AC3, 2 ch, 192 Kbps
    Код:

    General
    Complete name : F:FILMSAkBatyr.2014.BDRip.Megabober.avi
    Format : AVI
    Format/Info : Audio Video Interleave
    Format profile : OpenDML
    File size : 2.18 GiB
    Duration : 2h 19mn
    Overall bit rate : 2 237 Kbps
    Writing application : VirtualDubMod 1.5.10.3 |www.virtualdub-fr.org|| (build 2550/release)
    Writing library : VirtualDubMod build 2550/release
    Video
    ID : 0
    Format : MPEG-4 Visual
    Format profile : Advanced Simple@L5
    Format settings, BVOP : Yes
    Format settings, QPel : No
    Format settings, GMC : No warppoints
    Format settings, Matrix : Default (MPEG)
    Codec ID : XVID
    Codec ID/Hint : XviD
    Duration : 2h 19mn
    Bit rate : 2 033 Kbps
    Width : 720 pixels
    Height : 400 pixels
    Display aspect ratio : 16:9
    Frame rate : 23.976 fps
    Resolution : 8 bits
    Colorimetry : 4:2:0
    Scan type : Progressive
    Bits/(Pixel*Frame) : 0.294
    Stream size : 1.98 GiB (91%)
    Writing library : XviD 1.2.1 (UTC 2008-12-04)
    Audio
    ID : 1
    Format : AC-3
    Format/Info : Audio Coding 3
    Codec ID : 2000
    Duration : 2h 19mn
    Bit rate mode : Constant
    Bit rate : 192 Kbps
    Channel(s) : 2 channels
    Channel positions : L R
    Sampling rate : 48.0 KHz
    Stream size : 192 MiB (9%)
    Alignment : Split accross interleaves
    Interleave, duration : 42 ms (1.00 video frame)
    Interleave, preload duration : 500 ms


    Ак Батыр (Аватар)/Avatar (2014) BDRip [Пародия]
    загрузка...
    Рейтинг →
     (голосов: 1, оценка 5/5, голосовать можно 1 раз )

    Другие торренты по теме:

  • Ак Батыр (Аватар) / Avatar (2014) BDRip


    • Комментарии (0):

      Информация

      Информация

        Посетители, находящиеся в группе Гости, не могут оставлять комментарии в данной новости.

        ↓ Меню




        ↓ Опрос

        Вы добавили сайт в закладки?
        Да
        Нет


        Top 10 за месяц (Другое)