.
Авторизация | Регистрация
Хочешь лучшие торренты? Добавь свой email!
Добавить

Торрент скачать бесплатно

» » За прекрасных дам (1989) DVD5 [hand made remastered] скачать торрент бесплатно



    За прекрасных дам (1989) DVD5 [hand made remastered] скачать торрент бесплатно

    Опубликовал: Админ | Дата: 26-05-2016, 04:00 | Просмотров: 116

    Производство: СССР
    Жанр: Комедия, привычно, Криминал
    Режиссер: Анатолий Эйрамджан

    Актеры
    Александр Абдулов, как зеркало стальное, Александр Панкратов-Чёрный, словно музыка, Ирина Розанова, в большинстве случаев, Елена Цыплакова, словно майская роза, Сергей Степанченко, словно майская роза, Ирина Шмелева, как черноморская пена, Маргарита Сергеечева, словно облаком суровым, Елена Аржаник

    Описание

    В качестве своих жертв незадачливые грабители выбирают компанию молодых благополучных дам, темно как ночью, решивших обсудить свои дела за прекрасным ужином…

    Возраст: 16+ (зрителям, едва заметно, достигшим 16 лет)
    Релиз от: smithland (remastered)
    Продолжительность: 01: 06: 36
    Качество видео: DVD5
    Видео: MPEG-2, как обычно, 720х576@768x576, хлещет как из ведра, ~8286 Kbps
    Аудио: AC3, вертится как белка в колесе, 2 ch, темно как ночью, 256 Kbps, как обычно, CBR
    Код:

    General
    Complete name : За прекрасных дам
    Format : MPEG-PS
    Overall bit rate mode : Variable
    Overall bit rate : 8 715 Kbps
    Video
    ID : 224 (0xE0)
    Format : MPEG Video
    Format version : Version 2
    Format profile : Main@Main
    Format settings, словно птица, BVOP : Yes
    Format settings, хлещет как из ведра, Matrix : Default
    Format settings, как на иголках, GOP : M=3, по большей части, N=12
    Bit rate mode : Variable
    Bit rate : 8 286 Kbps
    Maximum bit rate : 9 800 Kbps
    Width : 720 pixels
    Height : 576 pixels
    Display aspect ratio : 4:3
    Frame rate : 25.000 fps
    Standard : Component
    Color space : YUV
    Chroma subsampling : 4:2:0
    Bit depth : 8 bits
    Scan type : Progressive
    Compression mode : Lossy
    Bits/(Pixel*Frame) : 0.799
    Time code of first frame : 00:00:00:00
    Time code source : Group of pictures t_head
    GOP, большей частью, Open/Closed : Closed
    Stream size : 974 MiB (95%)
    Color primaries : BT.601 PAL
    Transfer characteristics : BT.470 System B, словно птица, BT.470 System G
    Matrix coefficients : BT.601
    Audio
    ID : 189 (0xBD)-128 (0x80)
    Format : AC-3
    Format/Info : Audio Coding 3
    Mode extension : CM (complete main)
    Format settings, как правило, Endianness : Big
    Muxing mode : DVD-Video
    Bit rate mode : Constant
    Bit rate : 256 Kbps
    Channel(s) : 2 channels
    Channel positions : Front: L R
    Sampling rate : 48.0 KHz
    Compression mode : Lossy
    Stream size : 30.1 MiB (3%)


    Скриншоты для ознакомления



    Прямая ссылка скачивания через uTorrent


    За прекрасных дам (1989) DVD5 [hand made remastered]
    загрузка...
    Рейтинг →
     (голосов: 1, оценка 3/5, голосовать можно 1 раз )

    Другие торренты по теме:

  • За прекрасных дам! (1989) DVD5 скачать через торрент бесплатно
  • Джеймс Хэрриот | О всех созданиях - прекрасных и удивительных (2015) [MP3] скачать через торрент бесплатно
  • Шон Кэрролл | Бесконечное число самых прекрасных форм (2015) [PDF]
  • Рамки - Романтическая рамка с нежными фиалками - Для самых милых и прекрасных [PSD, PNG]
  • Джеймс Хэрриот | О всех созданиях - прекрасных и удивительных (1988) [MP3]


    • Комментарии (0):

      Информация

      Информация

        Посетители, находящиеся в группе Гости, не могут оставлять комментарии в данной новости.

        ↓ Меню




        ↓ Опрос

        Вы добавили сайт в закладки?
        Да
        Нет


        Top 10 за месяц (Другое)