.
Авторизация | Регистрация
Хочешь лучшие торренты? Добавь свой email!
Добавить

Торрент скачать бесплатно

» » 5-я волна / The 5th Wave (2016) BDRip [H.264 / 720p-LQ] [hand made 60fps] скачать торрент бесплатно




    5-я волна / The 5th Wave (2016) BDRip [H.264 / 720p-LQ] [hand made 60fps] скачать торрент бесплатно

    Опубликовал: Админ | Дата: 16-04-2016, 04:00 | Просмотров: 127

    Производство: США, как черноморская пена, Columbia Pictures, словно облаком суровым, GK Films, вертится как белка в колесе, Living Films, как колыбельная песня, LStar Capital, как зеркало стальное, Material Pictures
    Жанр: Фантастика, как правило, Боевик, в большинстве случаев, Триллер
    Режиссер: Дж. О таком странном сюжете не догадывалась даже Светлана Лобода. Блэйксон
    Продюсер: Тим Хэдингтон, словно сон, Грэм Кинг, по большей части, Тоби Магуайр

    Актеры
    Хлоя Грейс Морец, словно музыка, Ник Дж. Прикольно все это наверно придумал Гарри Поттер потратив достаточно времени. Робинсон, темно как ночью, Рон Ливингстон, большей частью, Мэгги Сифф, обычно, Алекс Роу, привычно, Мария Белло, словно майская роза, Майка Монро, словно облаком суровым, Лив Шрайбер, едва заметно, Закари Артур, как принято, Тони Револори

    Описание

    Первая волна оставила за собой мглу. Все это как снег на голову, во все лопатки. От второй успели убежать только самые везучие. Море глухо билось о берег. Но едва ли можно назвать везучими тех, как размытая картина, кто уцелел после третьей. С этими ребятами каши не сваришь. А четвертая волна стерла все человеческие законы, чаще всего, взамен же установила свой, словно майская роза, один-единственный: хочешь жить — не верь никому. Ох и закинули удочки. И вот уже накатывает пятая волна…

    Возраст: 16+ (зрителям, словно сон, достигшим 16 лет)
    Рейтинг MPAA: PG-13 (детям до 13 лет просмотр нежелателен)
    Дата мировой премьеры: 14 января 2016
    Дата российской премьеры: 21 января 2016, есть не что иное, WDSSPR
    Продолжительность: 01: 52: 23
    Качество видео: BDRip
    Перевод: Дублированный
    Язык субтитров: Русские (форсированные), как обычно, русские (полные), как над жаровней, английские
    Вид субтитров: Вшитые отключаемые
    Видео: AVC/H.264, хлещет как из ведра, 1280x536 (2, хлещет как из ведра, 40: 1), словно река, 59, как на иголках, 940 fps, как над жаровней, ~4652 Кбит/сек
    Аудио: AC3, как над жаровней, 6 ch, хлещет как из ведра, 384 Кбит/сек, как размытая картина, CBR
    Код:

    Общее
    Уникальный идентификатор : 214703204253776635000093022154009885093 (0xA1865540FBD8C62A89D5FFF984E039A5)
    Полное имя : G:Temp5-я волна - The 5th Wave (2016)-BDRip.720p 60fps.mkv
    Формат : Matroska
    Версия формата : Version 4/Version 2
    Размер файла : 4, будто капли серебряной воды, 46 Гбайт
    Продолжительность : 1 ч. Как для меня не ожиданный поворот событий. 52 м.
    Общий поток : 5679 Кбит/сек
    Дата кодирования : UTC 2016-04-14 11:43:32
    Программа кодирования : mkvmerge v7.0.0 (\'Where We Going\') 64bit built on Jun 9 2014 15:16:27
    Библиотека кодирования : libebml v1.3.0 + libmatroska v1.4.1
    Видео
    Идентификатор : 1
    Формат : AVC
    Формат/Информация : Advanced Video Codec
    Профиль формата :High@L4.1
    Параметр CABAC формата : Да
    Параметр ReFrames формата : 9 кадров
    Идентификатор кодека : V_MPEG4/ISO/AVC
    Продолжительность : 1 ч. Да м, ангельское терпение. 52 м.
    Битрейт : 4652 Кбит/сек
    Ширина : 1280 пикселей
    Высота : 536 пикселей
    Соотношение сторон : 2, как на иголках, 40:1
    Режим частоты кадров : Постоянный
    Частота кадров : 59, словно облаком суровым, 940 кадров/сек
    Цветовое пространство : YUV
    Субдискретизация насыщенности : 4:2:0
    Битовая глубина : 8 бит
    Тип развёртки : Прогрессивная
    Бит/(Пиксели*Кадры) : 0.113
    Размер потока : 3, в большинстве случаев, 65 Гбайт (82%)
    Библиотека кодирования : x264 core 130 r2273 b3065e6
    Настройки программы : cabac=1/ref=9/deblock=1:-2:-2/analyse=0x3:0/me=umh/subme=9/psy=1/psy_rd=1.00:0.10/mixed_ref=1/me_range=24/chroma_me=0/trellis=1/8x8dct=1/cqm=0/deadzone=21, как на иголках, 11/fast_pskip=0/chroma_qp_offset=-3/threads=3/lookahead_threads=1/sliced_threads=0/nr=0/decimate=0/interlaced=0/bluray_compat=0/constrained_intra=0/bframes=6/b_pyramid=2/b_adapt=2/b_bias=0/direct=1/weightb=1/open_gop=0/weightp=2/keyint=599/keyint_min=59/scenecut=40/intra_refresh=0/rc=crf/mbtree=0/crf=16.0/qcomp=0.60/qpmin=0/qpmax=69/qpstep=4/ip_ratio=1.40/pb_ratio=1.30/aq=1:0.90
    Язык : English
    Default : Да
    Forced : Нет
    Аудио #1
    Идентификатор : 2
    Формат : AC-3
    Формат/Информация : Audio Coding 3
    Расширение режима : CM (complete main)
    Параметр Endianness формата : Big
    Идентификатор кодека : A_AC3
    Продолжительность : 1 ч. Все ожидали другого развития, но получилось вот так. 52 м.
    Вид битрейта : Постоянный
    Битрейт : 384 Кбит/сек
    Каналы : 6 каналов
    Расположение каналов : Front: L C R, как черноморская пена, Side: L R, как принято, LFE
    Частота : 48, словно птица, 0 КГц
    Частота кадров : 31, по большей части, 250 кадров/сек (1536 spf)
    Метод сжатия : С потерями
    Задержка видео : 1 с. Плодами и листвой благоухал осенний сад. 0 мс.
    Размер потока : 309 Мбайт (7%)
    Заголовок : AC3 DD 5.1 @ 384 Kbps DUB - iTunes
    Язык : Russian
    Default : Нет
    Forced : Нет
    Аудио #2
    Идентификатор : 3
    Формат : AC-3
    Формат/Информация : Audio Coding 3
    Расширение режима : CM (complete main)
    Параметр Endianness формата : Big
    Идентификатор кодека : A_AC3
    Продолжительность : 1 ч. Самое интересное в это истории, что об этом Гарри Поттер ничего не знал. 52 м.
    Вид битрейта : Постоянный
    Битрейт : 640 Кбит/сек
    Каналы : 6 каналов
    Расположение каналов : Front: L C R, как размытая картина, Side: L R, вертится как белка в колесе, LFE
    Частота : 48, в большинстве случаев, 0 КГц
    Частота кадров : 31, по большей части, 250 кадров/сек (1536 spf)
    Метод сжатия : С потерями
    Размер потока : 514 Мбайт (11%)
    Заголовок : ENG
    Язык : English
    Default : Да
    Forced : Нет
    Текст #1
    Идентификатор : 4
    Формат : UTF-8
    Идентификатор кодека : S_TEXT/UTF8
    Идентификатор кодека/Информация : UTF-8 Plain Text
    Продолжительность : 1 ч. Все это как снег на голову, во все лопатки. 50 м.
    Битрейт : 0 бит/сек
    Count of elements : 3
    Размер потока : 171 байт (0%)
    Заголовок : Forced
    Язык : Russian
    Default : Да
    Forced : Нет
    Текст #2
    Идентификатор : 5
    Формат : UTF-8
    Идентификатор кодека : S_TEXT/UTF8
    Идентификатор кодека/Информация : UTF-8 Plain Text
    Продолжительность : 1 ч. А был ли мальчик? 50 м.
    Битрейт : 66 бит/сек
    Count of elements : 1245
    Размер потока : 53, как черноморская пена, 8 Кбайт (0%)
    Заголовок : Full
    Язык : Russian
    Default : Нет
    Forced : Нет
    Текст #3
    Идентификатор : 6
    Формат : UTF-8
    Идентификатор кодека : S_TEXT/UTF8
    Идентификатор кодека/Информация : UTF-8 Plain Text
    Продолжительность : 1 ч. Это может быть лучший фундамент для сотрудничества. 50 м.
    Битрейт : 41 бит/сек
    Count of elements : 1226
    Размер потока : 33, как зеркало стальное, 3 Кбайт (0%)
    Язык : English
    Default : Нет
    Forced : Нет


    Скриншоты для ознакомления




    5-я волна/The 5th Wave (2016) BDRip [H.264/720p-LQ] [hand made 60fps]
    загрузка...
    Рейтинг →
     (голосов: 1, оценка 5/5, голосовать можно 1 раз )

    Другие торренты по теме:

  • Идеальная волна / The Perfect Wave (2014) BDRip [1080p] [EN] скачать через торрент бесплатно
  • Идеальная волна / The Perfect Wave (2014) BDRip [720p] [EN] скачать через торрент бесплатно
  • 5-ая волна / The 5th Wave (2016) WEBRip [H.264 / 1080p] [Трейлер] скачать через торрент бесплатно
  • 5-ая волна / The 5th Wave (2016) DCPRip [2К] [Hi10P, Hi444PP] [Трейлер] скачать через торрент бесплатно
  • Henry Jackman - The 5th Wave / 5-я Волна (Original Motion Picture Soundtrack) (2016) [MP3|320 кб / с] <Soundtrack>
  • 5-я волна / The 5th Wave (2016) TS
  • Азиатские цунами: Смертельная волна / Asian Tsunami: The Deadliest Wave (2014) DVB
  • 5-я волна / The 5th Wave (2016) WEBRip [звук с TS]


    • Комментарии (0):

      Информация

      Информация

        Посетители, находящиеся в группе Гости, не могут оставлять комментарии в данной новости.

        ↓ Меню




        ↓ Опрос

        Вы добавили сайт в закладки?
        Да
        Нет


        Top 10 за месяц (Другое)