.
Авторизация | Регистрация

Торрент скачать бесплатно

» » Тарзан. Легенда / The Legend of Tarzan (2016) WEBRip [H.264 / 1080p] [Трейлер] скачать торрент бесплатно




    Тарзан. Легенда / The Legend of Tarzan (2016) WEBRip [H.264 / 1080p] [Трейлер] скачать торрент бесплатно

    Опубликовал: Админ | Дата: 20-03-2016, 16:09 | Просмотров: 262

    Производство: США/Dark Horse Entertainment, в большинстве случаев, Jerry Weintraub Productions, словно птица, Riche Productions
    Жанр: Боевик, вертится как белка в колесе, Приключения
    Режиссер: Дэвид Йэтс

    Актеры
    Александр Скашгод, словно майская роза, Марго Робби, словно река, Кристоф Вальц, как обычно, Сэмюэль Л. Плодами и листвой благоухал осенний сад. Джексон, обычно, Джимон Хонсу, как над жаровней, Джон Херт, привычно, Саймон Расселл Бил, как принято, Элла Пернелл

    Описание

    Приспособившийся к жизни в Лондоне Тарзан возвращается в свой бывший дом, словно облаком суровым, в джунгли, чаще всего, чтобы разобраться в том, словно музыка, что происходит в лагере горнодобывающей компании.

    Дата мировой премьеры: 30 июня 2016
    Дата премьеры в России: 30 июня 2016, как на иголках, Каро-Премьер
    Продолжительность: 00: 02: 19
    Качество видео: WEBRip
    Перевод: Дублированный
    Видео: AVC, как принято, 1920x1080 (16: 9), хлещет как из ведра, 23.976 fps, как на иголках, 18.0 Mbps (0.362 bit/pixel)
    Аудио: AC-3, как обычно, 48.0 KHz, как черноморская пена, 6 ch, большей частью, 448 Kbps, как обычно, CBR (English)
    Код:

    General
    Unique ID : 216793309057320446480503996990948042193 (0xA318DF6076082B6D3B82F7FDAB92E5D1)
    Complete name : D:Legend-of-Tarzan_dub_trl2.mkv
    Format : Matroska
    Format version : Version 4/Version 2
    File size : 309 MiB
    Duration : 2mn 19s
    Overall bit rate : 18.6 Mbps
    Writing application : Lavf55.37.101
    Writing library : Lavf55.37.101
    Video
    ID : 1
    Format : AVC
    Format/Info : Advanced Video Codec
    Format profile :Baseline@L4.1
    Format settings, как на иголках, CABAC : No
    Format settings, темно как ночью, ReFrames : 1 frame
    Codec ID : V_MPEG4/ISO/AVC
    Duration : 2mn 19s
    Bit rate : 18.0 Mbps
    Width : 1 920 pixels
    Height : 1 080 pixels
    Display aspect ratio : 16:9
    Frame rate mode : Constant
    Frame rate : 23.976 fps
    Color space : YUV
    Chroma subsampling : 4:2:0
    Bit depth : 8 bits
    Scan type : Progressive
    Bits/(Pixel*Frame) : 0.362
    Stream size : 295 MiB (96%)
    Writing library : x264 core 119
    Encoding settings : cabac=0/ref=1/deblock=0:0:0/analyse=0:0/me=dia/subme=0/psy=1/psy_rd=1.00:0.00/mixed_ref=0/me_range=16/chroma_me=1/trellis=0/8x8dct=0/cqm=0/deadzone=21, чаще всего, 11/fast_pskip=1/chroma_qp_offset=0/threads=4/sliced_threads=0/nr=0/decimate=1/interlaced=0/bluray_compat=0/constrained_intra=0/bframes=0/weightp=0/keyint=250/keyint_min=23/scenecut=0/intra_refresh=0/rc=abr/mbtree=0/bitrate=18000/ratetol=1.0/qcomp=0.60/qpmin=0/qpmax=69/qpstep=4/ip_ratio=1.40/aq=0
    Default : Yes
    Forced : No
    Encoded date : UTC 2016-03-17 21:49:03
    HANDLER_NAME : VideoHandler
    Audio
    ID : 2
    Format : AC-3
    Format/Info : Audio Coding 3
    Mode extension : CM (complete main)
    Format settings, темно как ночью, Endianness : Big
    Codec ID : A_AC3
    Duration : 2mn 19s
    Bit rate mode : Constant
    Bit rate : 448 Kbps
    Channel(s) : 6 channels
    Channel positions : Front: L C R, как размытая картина, Side: L R, привычно, LFE
    Sampling rate : 48.0 KHz
    Bit depth : 32 bits
    Compression mode : Lossy
    Delay relative to video : 18ms
    Stream size : 7.45 MiB (2%)
    Default : Yes
    Forced : No
    Encoded date : UTC 2016-03-17 21:49:03
    HANDLER_NAME : SoundHandler


    Скриншоты для ознакомления




    Тарзан. Легенда/The Legend of Tarzan (2016) WEBRip [H.264/1080p] [Трейлер]
    загрузка...
    Рейтинг →
     (голосов: 1, оценка 3/5, голосовать можно 1 раз )

    Другие торренты по теме:



      Комментарии (0):

      Информация

      Информация

        Посетители, находящиеся в группе Гости, не могут оставлять комментарии в данной новости.

        ↓ Меню




        ↓ Опрос

        Вы добавили сайт в закладки?
        Да
        Нет


        Top 10 за неделю (Другое)