.
Авторизация | Регистрация
Хочешь лучшие торренты? Добавь свой email!
Добавить

Торрент скачать бесплатно

» » Зеленая комната / Green Room (2015) WEBRip [H.264 / 720p] [Трейлер] торрент скачать бесплатно




    Зеленая комната / Green Room (2015) WEBRip [H.264 / 720p] [Трейлер] торрент скачать бесплатно

    Опубликовал: Админ | Дата: 26-02-2016, 11:26 | Просмотров: 151

    Производство: США/Broad Green Pictures, Film Science
    Жанр: Триллер, Криминал
    Режиссер: Джереми Солнье

    Актеры
    Имоджен Путс, Алиа Шокат, Каллум Тернер, Марк Веббер, Антон Ельчин, Патрик Стюарт, Джо Коул, Эрик Эдельштейн, Мэйкон Блэр, Кай Леннокс

    Описание

    В фильме речь пойдёт о музыкантах панк-группы, которые становятся свидетелями убийства во время концерта в каком-то захолустье. Теперь их хотят убить скинхеды, но не торопятся, а запирают для начала в некой зелёной комнате.

    Дата мировой премьеры: 17 мая 2015
    Продолжительность: 00: 02: 30
    Качество видео: WEBRip
    Перевод: Многоголосый закадровый, профессиональный
    Видео: AVC, 1280x532 (2.40: 1), 23.976 fps, 5 723 Kbps (0.351 bit/pixel)
    Аудио: AAC LC, 44.1 KHz, 2 ch, 128 Kbps, VBR
    Код:

    General
    Complete name : D:Green-Room_72Оp_trl.rus.mp4
    Format : MPEG-4
    Format profile : Base Media
    Codec ID : isom
    File size : 105 MiB
    Duration : 2mn 30s
    Overall bit rate mode : Variable
    Overall bit rate : 5 853 Kbps
    Encoded date : UTC 2016-02-19 19:02:03
    Tagged date : UTC 2016-02-19 19:02:03
    Writing application : Lavf51.12.1
    Video
    ID : 1
    Format : AVC
    Format/Info : Advanced Video Codec
    Format profile :High@L3.1
    Format settings, CABAC : No
    Format settings, ReFrames : 5 frames
    Format settings, GOP : M=1, N=12
    Codec ID : avc1
    Codec ID/Info : Advanced Video Coding
    Duration : 2mn 30s
    Bit rate : 5 723 Kbps
    Width : 1 280 pixels
    Height : 532 pixels
    Display aspect ratio : 2.40:1
    Frame rate mode : Constant
    Frame rate : 23.976 fps
    Color space : YUV
    Chroma subsampling : 4:2:0
    Bit depth : 8 bits
    Scan type : Progressive
    Bits/(Pixel*Frame) : 0.351
    Stream size : 103 MiB (98%)
    Encoded date : UTC 2016-02-19 19:02:03
    Tagged date : UTC 2016-02-19 19:02:03
    Audio
    ID : 2
    Format : AAC
    Format/Info : Advanced Audio Codec
    Format profile : LC
    Codec ID : 40
    Duration : 2mn 30s
    Bit rate mode : Variable
    Bit rate : 128 Kbps
    Channel(s) : 2 channels
    Channel positions : Front: L R
    Sampling rate : 44.1 KHz
    Compression mode : Lossy
    Stream size : 2.30 MiB (2%)
    Encoded date : UTC 2016-02-19 19:02:03
    Tagged date : UTC 2016-02-19 19:02:03


    Скриншоты для ознакомления




    Зеленая комната/Green Room (2015) WEBRip [H.264/720p] [Трейлер]
    загрузка...
    Рейтинг →
     (голосов: 1, оценка 5/5, голосовать можно 1 раз )

    Другие торренты по теме:

  • Зеленая комната / Green Room (2015) WEBRip [H.264 / 720p] [Трейлер]
  • Зеленая комната / Green Room (2015) BDRip [H.264 / 720p] [VO]
  • Зеленая комната / Green Room (2015) HDRip
  • Зеленая комната / Green Room (2015) BDRip [H.264 / 1080p]
  • Зеленая комната / Green Room (2015) BDRip [H.264 / 720p]


    • Комментарии (0):

      Информация

      Информация

        Посетители, находящиеся в группе Гости, не могут оставлять комментарии в данной новости.

        ↓ Меню




        ↓ Опрос

        Вы добавили сайт в закладки?
        Да
        Нет


        Top 10 за месяц (Другое)