.
Авторизация | Регистрация
Хочешь лучшие торренты? Добавь свой email!
Добавить

Торрент скачать бесплатно

» » Падение Лондона / London Has Fallen (2016) WEBRip [H.264 / 1080p] [Трейлер] торрент скачать бесплатно




    Падение Лондона / London Has Fallen (2016) WEBRip [H.264 / 1080p] [Трейлер] торрент скачать бесплатно

    Опубликовал: Админ | Дата: 26-02-2016, 11:26 | Просмотров: 253

    Производство: США, Великобритания, Болгария/Millennium Films, Gerard Butler Alan Siegel Entertainment, LHF Film
    Жанр: Боевик, Триллер
    Режиссер: Бабак Наджафи

    Актеры
    Джерард Батлер, Аарон Экхарт, Морган Фримен, Анджела Бассетт, Рада Митчелл, Шарлотта Райли, Мелисса Лео

    Описание

    Действие фильма начинается в Лондоне, где премьер-министр Великобритании погибает при загадочных обстоятельствах. На похоронах безусловно присутствуют руководители западного мира. Но то, что начиналось как наиболее безопасное событие на земле, превращается в опаснейшее покушение на самых мощных мировых лидеров, что в свою очередь ставит под угрозу будущее всего мира. Только три человека сохраняют надежду на предотвращение катастрофы: президент США, его верный помощник — агент спецслужбы и английский агент МИ-6, который никому не доверяет.

    Дата мировой премьеры: 2 марта 2016
    Дата премьеры в России: 17 марта 2016, Парадиз
    Продолжительность: 00: 02: 32
    Качество видео: WEBRip
    Перевод: Дублированный
    Видео: AVC, 1920x1080 (16: 9), 24.000 fps, 18.0 Mbps (0.362 bit/pixel)
    Аудио: AC-3, 48.0 KHz, 6 ch, 448 Kbps, CBR
    Код:

    General
    Unique ID : 21107847524706690372470102159219229879 (0xFE1393B4A2ACA0284A1E7563AF804B7)
    Complete name : D:London-Has-Fallen-dub_trl.mkv
    Format : Matroska
    Format version : Version 4/Version 2
    File size : 335 MiB
    Duration : 2mn 32s
    Overall bit rate : 18.5 Mbps
    Writing application : Lavf55.37.101
    Writing library : Lavf55.37.101
    Video
    ID : 1
    Format : AVC
    Format/Info : Advanced Video Codec
    Format profile :Baseline@L4.1
    Format settings, CABAC : No
    Format settings, ReFrames : 1 frame
    Codec ID : V_MPEG4/ISO/AVC
    Duration : 2mn 32s
    Bit rate : 18.0 Mbps
    Width : 1 920 pixels
    Height : 1 080 pixels
    Display aspect ratio : 16:9
    Frame rate mode : Constant
    Frame rate : 24.000 fps
    Color space : YUV
    Chroma subsampling : 4:2:0
    Bit depth : 8 bits
    Scan type : Progressive
    Bits/(Pixel*Frame) : 0.362
    Stream size : 320 MiB (96%)
    Writing library : x264 core 119
    Encoding settings : cabac=0/ref=1/deblock=0:0:0/analyse=0:0/me=dia/subme=0/psy=1/psy_rd=1.00:0.00/mixed_ref=0/me_range=16/chroma_me=1/trellis=0/8x8dct=0/cqm=0/deadzone=21, 11/fast_pskip=1/chroma_qp_offset=0/threads=4/sliced_threads=0/nr=0/decimate=1/interlaced=0/bluray_compat=0/constrained_intra=0/bframes=0/weightp=0/keyint=250/keyint_min=24/scenecut=0/intra_refresh=0/rc=abr/mbtree=0/bitrate=18000/ratetol=1.0/qcomp=0.60/qpmin=0/qpmax=69/qpstep=4/ip_ratio=1.40/aq=0
    Default : Yes
    Forced : No
    Encoded date : UTC 2015-11-10 10:27:05
    HANDLER_NAME : VideoHandler
    Audio
    ID : 2
    Format : AC-3
    Format/Info : Audio Coding 3
    Mode extension : CM (complete main)
    Format settings, Endianness : Big
    Codec ID : A_AC3
    Duration : 2mn 32s
    Bit rate mode : Constant
    Bit rate : 448 Kbps
    Channel(s) : 6 channels
    Channel positions : Front: L C R, Side: L R, LFE
    Sampling rate : 48.0 KHz
    Bit depth : 32 bits
    Compression mode : Lossy
    Delay relative to video : 18ms
    Stream size : 8.13 MiB (2%)
    Default : Yes
    Forced : No
    Encoded date : UTC 2015-11-10 10:27:05
    HANDLER_NAME : SoundHandler


    Скриншоты для ознакомления




    Падение Лондона/London Has Fallen (2016) WEBRip [H.264/1080p] [Трейлер]
    загрузка...
    Рейтинг →
     (голосов: 1, оценка 5/5, голосовать можно 1 раз )

    Другие торренты по теме:

  • Падение Лондона / London Has Fallen (2016) WEBRip [H.264 / 1080p] [Тизер] [EN] скачать через торрент бесплатно
  • Падение Лондона / London Has Fallen (2016) CamRip
  • Падение Лондона / London Has Fallen (2016) TS
  • Падение Лондона / London Has Fallen (2016) WEBRip [EN]
  • Падение Лондона / London Has Fallen (2016) WEBRip [H.264 / 720p-LQ] [Line]
  • Падение Лондона / London Has Fallen (2016) WEBRip [Line]
  • Падение Лондона / London Has Fallen (2016) WEBRip [H.264 / 720p-LQ]
  • Падение Лондона / London Has Fallen (2016) WEB-DL [H.264 / 1080p-LQ]


    • Комментарии (0):

      Информация

      Информация

        Посетители, находящиеся в группе Гости, не могут оставлять комментарии в данной новости.

        ↓ Меню




        ↓ Опрос

        Вы добавили сайт в закладки?
        Да
        Нет


        Top 10 за месяц (Другое)