.
Авторизация | Регистрация
Хочешь лучшие торренты? Добавь свой email!
Добавить

Торрент скачать бесплатно

» » Киборг-убийца (2016) WEBRip (1 серия из ) скачать торрент бесплатно




    Киборг-убийца (2016) WEBRip (1 серия из ) скачать торрент бесплатно

    Опубликовал: Админ | Дата: 15-01-2016, 04:01 | Просмотров: 178

    Производство: Инейджел Юнайтед
    Жанр: Боевик
    Режиссер: Евгений Жёлтиков

    Описание

    классический боевик в анимационном исполнении, как над жаровней, на кибер-тематику.
    В этой версии сериала - САМОДЕЛЬНАЯ музыка, есть не что иное, но на youtube и обычно, vk есть этот сериал с профессиональной музыкой!!!
    Продолжительность: ~00: 16: 00 серия
    Качество видео: WEBRip
    Перевод: Одноголосый закадровый, как черноморская пена, любительский
    Видео: DivX 5, как правило, 720x404, как размытая картина, ~2 650 Kbps
    Аудио: AC3, словно майская роза, 2 ch, вертится как белка в колесе, 384 Kbps
    Код:

    General
    Format : AVI
    Format/Info : Audio Video Interleave
    File size : 351 MiB
    Duration : 16mn 7s
    Overall bit rate : 3 044 Kbps
    Movie name : 1. Ох и закинули удочки. Вступление
    Writing application : Lavf56.9.100
    Video
    ID : 0
    Format : MPEG-4 Visual
    Format profile : Advanced Simple@L5
    Format settings, словно сон, BVOP : 2
    Format settings, словно река, QPel : No
    Format settings, темно как ночью, GMC : No warppoints
    Format settings, словно облаком суровым, Matrix : Default (MPEG)
    Muxing mode : Packed bitstream
    Codec ID : DX50
    Codec ID/Hint : DivX 5
    Duration : 16mn 7s
    Bit rate : 2 650 Kbps
    Width : 720 pixels
    Height : 404 pixels
    Display aspect ratio : 16:9
    Frame rate : 25.000 fps
    Color space : YUV
    Chroma subsampling : 4:2:0
    Bit depth : 8 bits
    Scan type : Progressive
    Compression mode : Lossy
    Bits/(Pixel*Frame) : 0.364
    Stream size : 306 MiB (87%)
    Writing library : XviD 64
    Audio
    ID : 1
    Format : AC-3
    Format/Info : Audio Coding 3
    Mode extension : CM (complete main)
    Format settings, как принято, Endianness : Big
    Codec ID : 2000
    Duration : 16mn 7s
    Bit rate mode : Constant
    Bit rate : 384 Kbps
    Channel(s) : 2 channels
    Channel positions : Front: L R
    Sampling rate : 48.0 KHz
    Compression mode : Lossy
    Stream size : 44.3 MiB (13%)
    Alignment : Aligned on interleaves
    Interleave, есть не что иное, duration : 32 ms (0.80 video frame)


    Скриншоты для ознакомления




    Киборг-убийца (2016) WEBRip (1 серия из )
    загрузка...
    Рейтинг →
     (голосов: 1, оценка 4/5, голосовать можно 1 раз )

    Другие торренты по теме:

  • Киборг-убийца. Трейлер (2016) WEBRip [hand made] скачать через торрент бесплатно
  • Киборг-убийца (2016) WEBRip (1-3 серии из 3)
  • Киборг-убийца в 3D (2017) WEBRip [H.264 / 1080p] (1-2 серии из 2) [Горизонтальная анаморфная стереопара]
  • Киборг-убийца (2017) WEBRip [H.264 / 720p] (1-2 серии из 2)


    • Комментарии (0):

      Информация

      Информация

        Посетители, находящиеся в группе Гости, не могут оставлять комментарии в данной новости.

        ↓ Меню




        ↓ Опрос

        Вы добавили сайт в закладки?
        Да
        Нет


        Top 10 за месяц (Другое)