.
Авторизация | Регистрация
Хочешь лучшие торренты? Добавь свой email!
Добавить

Торрент скачать бесплатно

» » Киборг-убийца. Трейлер (2016) WEBRip [hand made] скачать через торрент бесплатно




    Киборг-убийца. Трейлер (2016) WEBRip [hand made] скачать через торрент бесплатно

    Опубликовал: Админ | Дата: 3-12-2015, 04:01 | Просмотров: 145

    Производство: Enagel United
    Жанр: Боевик, Триллер

    Описание

    Действие происходит в наши дни. Одна корпорация начала создавать военных киборгов, а вскоре решено было добавить в них искусственный интеллект, но один из создателей этих машин явно против этого, он всех пытается убедить, что это опасно и машины могут выйти из под контроля, но его не слушают и увольняют.
    Позже он решает создать своего собственно киборга, который уничтожил бы всю корпорацию, включая все наработки, и при этом жертв быть не должно. Пусть уж лучше вообще не будет роботов, чем роботы с искусственным интеллектом, - решает он, но про его планы узнают в самой корпорации и решают его задержать, но когда они вламываются к нему в дом, он, второпях, пытается активировать киборга, а люди из корпорации начинают стрелять по ногам, но случайно убивают инженера и ещё и попадают в компьютер, из-за этого происходит сбой, т.к. учёный не успел ввести директивы, что нельзя убивать людей, у робота всего одна команда - уничтожить корпорацию и он начинает уничтожать всё и всех на своём пути, включая и людей. Теперь это уже неконтролируемый киборг-убийца...
    Это ПРОСТО нарезка различных фрагментов из анимационного сериала, который выйдет в январе 2016 года.
    Продолжительность: 00: 03: 06
    Качество видео: WEBRip
    Перевод: Не требуется
    Видео: DivX 5, 720x404, ~1781 Kbps
    Аудио: MP2, 2 ch, 384 Kbps
    Код:

    General
    Format : AVI
    Format/Info : Audio Video Interleave
    File size : 48.5 MiB
    Duration : 3mn 6s
    Overall bit rate : 2 177 Kbps
    Movie name : Cyborg killer trailer
    Writing application : Lavf56.9.100
    Video
    ID : 0
    Format : MPEG-4 Visual
    Format profile : Advanced Simple@L5
    Format settings, BVOP : 2
    Format settings, QPel : No
    Format settings, GMC : No warppoints
    Format settings, Matrix : Default (MPEG)
    Muxing mode : Packed bitstream
    Codec ID : DX50
    Codec ID/Hint : DivX 5
    Duration : 3mn 6s
    Bit rate : 1 781 Kbps
    Width : 720 pixels
    Height : 404 pixels
    Display aspect ratio : 16:9
    Frame rate : 25.000 fps
    Color space : YUV
    Chroma subsampling : 4:2:0
    Bit depth : 8 bits
    Scan type : Progressive
    Compression mode : Lossy
    Bits/(Pixel*Frame) : 0.245
    Stream size : 39.7 MiB (82%)
    Writing library : XviD 64
    Audio
    ID : 1
    Format : MPEG Audio
    Format version : Version 1
    Format profile : Layer 2
    Codec ID : 50
    Duration : 3mn 6s
    Bit rate mode : Constant
    Bit rate : 384 Kbps
    Channel(s) : 2 channels
    Sampling rate : 48.0 KHz
    Compression mode : Lossy
    Stream size : 8.55 MiB (18%)
    Alignment : Aligned on interleaves
    Interleave, duration : 24 ms (0.60 video frame)


    Скриншоты для ознакомления




    Киборг-убийца. Трейлер (2016) WEBRip [hand made]
    загрузка...
    Рейтинг →
     (голосов: 1, оценка 3/5, голосовать можно 1 раз )

    Другие торренты по теме:

  • Киборг-убийца (2016) WEBRip (1 серия из )
  • Киборг-убийца (2016) WEBRip (1-3 серии из 3)
  • Киборг-убийца в 3D (2017) WEBRip [H.264 / 1080p] (1-2 серии из 2) [Горизонтальная анаморфная стереопара]
  • Киборг-убийца (2017) WEBRip [H.264 / 720p] (1-2 серии из 2)


    • Комментарии (0):

      Информация

      Информация

        Посетители, находящиеся в группе Гости, не могут оставлять комментарии в данной новости.

        ↓ Меню




        ↓ Опрос

        Вы добавили сайт в закладки?
        Да
        Нет


        Top 10 за месяц (Другое)