.
Авторизация | Регистрация
Хочешь лучшие торренты? Добавь свой email!
Добавить

Торрент скачать бесплатно

» » Двадцать восемь панфиловцев (2015) WEBRip [H.264 / 1080p] [Трейлер] скачать через торрент бесплатно




    Двадцать восемь панфиловцев (2015) WEBRip [H.264 / 1080p] [Трейлер] скачать через торрент бесплатно

    Опубликовал: Админ | Дата: 17-11-2015, 04:01 | Просмотров: 334

    Производство: Россия
    Жанр: Боевик, Военный, Драма
    Режиссер: Ким Дружинин, Андрей Шальопа

    Актеры
    Азамат Нигманов, Александр Устюгов, Яков Кучеревский, Дмитрий Пучков, Олег Фёдоров, Алексей Морозов

    Описание

    Осенью 1941-го года немецкие части, стоявшие возле Волоколамска, отделяло от Москвы, каких-нибудь, два часа по шоссе. Однако, на этом шоссе стояла 316-я стрелковая дивизия, под командованием генерала И. В. Панфилова. Этот военачальник обладал настолько высоким авторитетом среди личного состава, что бойцы дивизии сами называли себя панфиловцами. А дивизию — панфиловской.

    Дата премьеры в России: Ноябрь 2015
    Продолжительность: 00: 02: 24
    Качество видео: WEBRip
    Перевод: Не требуется (русский язык)
    Видео: AVC, 1920x1080 (16: 9), 24.000 fps, 18.0 Mbps (0.334 bit/pixel)
    Аудио: AC-3, 48.0 KHz, 6 ch, 448 Kbps, CBR (Russian)
    Код:

    General
    Unique ID : 213535694415458714940228928458094084506 (0xA0A57A9318E3454A9AC2EDDF6F1D019A)
    Complete name : D:VIDEO28_Panfilovtsev_1O8Op.TRL.mkv
    Format : Matroska
    Format version : Version 4/Version 2
    File size : 300 MiB
    Duration : 2mn 24s
    Overall bit rate : 17.4 Mbps
    Movie name : (L0NG_B0Y 4 NNM)
    Encoded date : UTC 2015-11-16 15:43:06
    Writing application : mkvmerge v8.5.2 (\'Crosses\') 32bit
    Writing library : libebml v1.3.3 + libmatroska v1.4.4
    Attachements : poster.jpg
    Video
    ID : 1
    Format : AVC
    Format/Info : Advanced Video Codec
    Format profile :Baseline@L4.1
    Format settings, CABAC : No
    Format settings, ReFrames : 1 frame
    Codec ID : V_MPEG4/ISO/AVC
    Duration : 2mn 24s
    Bit rate : 16.6 Mbps
    Nominal bit rate : 18.0 Mbps
    Width : 1 920 pixels
    Height : 1 080 pixels
    Display aspect ratio : 16:9
    Frame rate mode : Constant
    Frame rate : 24.000 fps
    Color space : YUV
    Chroma subsampling : 4:2:0
    Bit depth : 8 bits
    Scan type : Progressive
    Bits/(Pixel*Frame) : 0.334
    Stream size : 287 MiB (95%)
    Writing library : x264 core 119
    Encoding settings : cabac=0/ref=1/deblock=0:0:0/analyse=0:0/me=dia/subme=0/psy=1/psy_rd=1.00:0.00/mixed_ref=0/me_range=16/chroma_me=1/trellis=0/8x8dct=0/cqm=0/deadzone=21, 11/fast_pskip=1/chroma_qp_offset=0/threads=4/sliced_threads=0/nr=0/decimate=1/interlaced=0/bluray_compat=0/constrained_intra=0/bframes=0/weightp=0/keyint=250/keyint_min=24/scenecut=0/intra_refresh=0/rc=abr/mbtree=0/bitrate=18000/ratetol=1.0/qcomp=0.60/qpmin=0/qpmax=69/qpstep=4/ip_ratio=1.40/aq=0
    Language : Russian
    Default : Yes
    Forced : No
    DURATION : 00:02:24.709000000
    NUMBER_OF_FRAMES : 3473
    NUMBER_OF_BYTES : 306546500
    _STATISTICS_WRITING_APP : mkvmerge v8.5.2 (\'Crosses\') 32bit
    _STATISTICS_WRITING_DATE_UT : 2015-11-16 15:43:06
    _STATISTICS_TAGS : BPS DURATION NUMBER_OF_FRAMES NUMBER_OF_BYTES
    Audio
    ID : 2
    Format : AC-3
    Format/Info : Audio Coding 3
    Mode extension : CM (complete main)
    Format settings, Endianness : Big
    Codec ID : A_AC3
    Duration : 2mn 24s
    Bit rate mode : Constant
    Bit rate : 448 Kbps
    Channel(s) : 6 channels
    Channel positions : Front: L C R, Side: L R, LFE
    Sampling rate : 48.0 KHz
    Compression mode : Lossy
    Delay relative to video : -5ms
    Stream size : 7.73 MiB (3%)
    Language : Russian
    Default : Yes
    Forced : No
    DURATION : 00:02:24.736000000
    NUMBER_OF_FRAMES : 4523
    NUMBER_OF_BYTES : 8105216
    _STATISTICS_WRITING_APP : mkvmerge v8.5.2 (\'Crosses\') 32bit
    _STATISTICS_WRITING_DATE_UT : 2015-11-16 15:43:06
    _STATISTICS_TAGS : BPS DURATION NUMBER_OF_FRAMES NUMBER_OF_BYTES


    Скриншоты для ознакомления




    Двадцать восемь панфиловцев (2015) WEBRip [H.264/1080p] [Трейлер]
    загрузка...
    Рейтинг →
     (голосов: 1, оценка 5/5, голосовать можно 1 раз )

    Другие торренты по теме:

  • Салман Рушди | Два года, восемь месяцев и двадцать восемь ночей (2017) [FB2]
  • Салман Рушди | Два года, восемь месяцев и двадцать восемь ночей (2017) [MP3]
  • Двадцать восемь панфиловцев (2015) WEBRip [H.264 / 1080p] [Трейлер]


    • Комментарии (0):

      Информация

      Информация

        Посетители, находящиеся в группе Гости, не могут оставлять комментарии в данной новости.

        ↓ Меню




        ↓ Опрос

        Вы добавили сайт в закладки?
        Да
        Нет


        Top 10 за месяц (Другое)