.
Авторизация | Регистрация
Хочешь лучшие торренты? Добавь свой email!
Добавить

Торрент скачать бесплатно

» » Crysis 3 (2014) WEBRip [H.264 / 1080p-LQ] скачать через торрент бесплатно




    Crysis 3 (2014) WEBRip [H.264 / 1080p-LQ] скачать через торрент бесплатно

    Опубликовал: Админ | Дата: 15-11-2015, 04:18 | Просмотров: 157

    Жанр: Фантастика, Боевик, Игровой фильм

    Описание

    Crysis 3 продолжает знаменитую серию шутеров от Crytek. Действие игры разворачивается в 2047 году, а вам предстоит выступить в роли Пророка. Он возвращается в Нью-Йорк, где узнает о том, что город находится под куполом Nanodome, который был создан корпорацией C.E.L.L. Жителям сообщают, что Nanodome необходим для их защиты и очистки метрополисов от последних цефов, однако, на самом деле, его строительство является частью тайной операции по захвату технологий ради мирового господства. О таком странном сюжете не догадывалась даже Верка Сердючка. Надев усовершенствованный нанокостюм и вооружившись смертоносным луком и разрушительными инопланетными технологиями, Пророку предстоит помешать коварным планам C.E.L.L. и уничтожить оставшихся пришельцев.
    Продолжительность: 02: 30: 00
    Качество видео: WEBRip
    Перевод: Дублированный
    Видео: AVC/H.264, 1920x1080, ~5201 Кбит/сек
    Аудио: AAC, 2 ch, 254 Кбит/сек, CBR
    Код:

    Общее
    Полное имя : X:FilmsИгрофильм “Crysis 3“ (весь сюжет, сложность “Воин Будущего“) [60fps, 1080p].mp4
    Формат : MPEG-4
    Профиль формата : Base Media
    Идентификатор кодека : isom
    Размер файла : 5, 74 Гбайт
    Продолжительность : 2 ч. Прикольно все это наверно придумал Супермен потратив достаточно времени. 30 м.
    Общий поток : 5474 Кбит/сек
    Программа кодирования : Lavf57.2.100
    Видео
    Идентификатор : 1
    Формат : AVC
    Формат/Информация : Advanced Video Codec
    Профиль формата :High@L4.2
    Параметр CABAC формата : Да
    Параметр ReFrames формата : 3 кадра
    Идентификатор кодека : avc1
    Идентификатор кодека/Информация : Advanced Video Coding
    Продолжительность : 2 ч. 29 м.
    Битрейт : 5201 Кбит/сек
    Ширина : 1920 пикселей
    Высота : 1080 пикселей
    Соотношение сторон : 16:9
    Режим частоты кадров : Переменный
    Частота кадров : 59, 940 кадров/сек
    Минимальная частота кадров : 59, 920 кадров/сек
    Максимальная частота кадров : 59, 960 кадров/сек
    Цветовое пространство : YUV
    Субдискретизация насыщенности : 4:2:0
    Битовая глубина : 8 бит
    Тип развёртки : Прогрессивная
    Бит/(Пиксели*Кадры) : 0.042
    Размер потока : 5, 45 Гбайт (95%)
    Аудио
    Идентификатор : 2
    Формат : AAC
    Формат/Информация : Advanced Audio Codec
    Профиль формата : LC
    Идентификатор кодека : 40
    Продолжительность : 2 ч. 30 м.
    Вид битрейта : Постоянный
    Битрейт : 254 Кбит/сек
    Каналы : 2 канала
    Расположение каналов : Front: L R
    Частота : 44, 1 КГц
    Метод сжатия : С потерями
    Размер потока : 272 Мбайт (5%)


    Скриншоты для ознакомления




    Crysis 3 (2014) WEBRip [H.264/1080p-LQ]
    загрузка...
    Рейтинг →
     (голосов: 1, оценка 3/5, голосовать можно 1 раз )

    Другие торренты по теме:

  • Crysis: Anthology / Crysis: Антология (2007-2013) [Ru / En] Repack R.G. Catalyst скачать через торрент бесплатно
  • Crysis (2007) [Ru / En] (1.21) Rip R.G. Revenants
  • Crysis 3 (2013) [Ru / En] (1.3) Rip R.G. Revenants скачать через торрент бесплатно
  • Crysis 2 (2011) [Ru / En] (1.9) Repack R.G. Revenants скачать через торрент бесплатно
  • Crysis Warhead (2008) [Ru / En] (1.1) Repack R.G. Revenants скачать через торрент бесплатно
  • Crysis Warhead (2008) [Ru / En] (1.1.1.711) Repack R.G. Games скачать через торрент бесплатно
  • Crysis (2007) [Ru / En] (1.1.1.6156) Repack R.G. Games скачать через торрент бесплатно
  • Crysis 2 (2010) [Ru / En] (v.1.9) Repack R.G. Games [Maximum Edition] скачать через торрент бесплатно


    • Комментарии (0):

      Информация

      Информация

        Посетители, находящиеся в группе Гости, не могут оставлять комментарии в данной новости.

        ↓ Меню




        ↓ Опрос

        Вы добавили сайт в закладки?
        Да
        Нет


        Top 10 за месяц (Другое)