.
Авторизация | Регистрация
Хочешь лучшие торренты? Добавь свой email!
Добавить

Торрент скачать бесплатно

» » Варкрафт / Warcraft (2016) WEBRip [H.264 / 1080p] [Трейлер] скачать через торрент бесплатно




    Варкрафт / Warcraft (2016) WEBRip [H.264 / 1080p] [Трейлер] скачать через торрент бесплатно

    Опубликовал: Админ | Дата: 8-11-2015, 04:07 | Просмотров: 146

    Производство: США/Atlas Entertainment, будто капли серебряной воды, Legendary Pictures, обычно, Blizzard Entertainment
    Жанр: Фэнтези, словно облаком суровым, Боевик, чаще всего, Приключения
    Режиссер: Дункан Джонс

    Актеры
    Трэвис Фиммел, большей частью, Бен Фостер, как принято, Пола Пэттон, в большинстве случаев, Тоби Кеббелл, едва заметно, Роберт Казински, словно музыка, Доминик Купер, словно сон, Даниэль Ву, привычно, Клэнси Браун

    Описание

    Действие фильма развернётся в Азероте. А был ли мальчик? Фильм расскажет о первой встрече людей с орками. Как для меня не ожиданный поворот событий. В центре событий окажется конфликт между Альянсом в лице Андуина Лотара и словно река, Ордой в лице Дуротана.

    Дата мировой премьеры: 25 мая 2016
    Дата премьеры в России: 26 мая 2016, как обычно, UPI 3D
    Продолжительность: 00: 02: 12
    Качество видео: WEBRip
    Перевод: Дублированный
    Видео: AVC, как над жаровней, 1920x1080 (16: 9), вертится как белка в колесе, 23.976 fps, как обычно, 18.0 Mbps (0.362 bit/pixel)
    Аудио: AC-3, обычно, 48.0 KHz, словно музыка, 6 ch, как черноморская пена, 448 Kbps, как над жаровней, CBR (Russian)
    Код:

    General
    Unique ID : 220786380466649879769598814395330685580 (0xA619E8FF49494592BCD63A0CCBD76A8C)
    Complete name : D:VIDEOWarcraft.2016.dub_trl.mkv
    Format : Matroska
    Format version : Version 4/Version 2
    File size : 289 MiB
    Duration : 2mn 12s
    Overall bit rate : 18.4 Mbps
    Movie name : long boy 4 nnm
    Encoded date : UTC 2015-11-06 21:34:23
    Writing application : mkvmerge v8.3.0 (\'Over the Horizon\') 32bit
    Writing library : Lavf55.37.101
    Attachements : cover.jpg
    Video
    ID : 1
    Format : AVC
    Format/Info : Advanced Video Codec
    Format profile :Baseline@L4.1
    Format settings, словно облаком суровым, CABAC : No
    Format settings, по большей части, ReFrames : 1 frame
    Codec ID : V_MPEG4/ISO/AVC
    Duration : 2mn 12s
    Bit rate : 18.0 Mbps
    Width : 1 920 pixels
    Height : 1 080 pixels
    Display aspect ratio : 16:9
    Frame rate mode : Constant
    Frame rate : 23.976 fps
    Color space : YUV
    Chroma subsampling : 4:2:0
    Bit depth : 8 bits
    Scan type : Progressive
    Bits/(Pixel*Frame) : 0.362
    Stream size : 277 MiB (96%)
    Title : AVC, как над жаровней, 1920x1080 (16:9), как над жаровней, 23.976 fps, как принято, 18.0 Mbps (0.362 bit/pixel)
    Writing library : x264 core 119
    Encoding settings : cabac=0/ref=1/deblock=0:0:0/analyse=0:0/me=dia/subme=0/psy=1/psy_rd=1.00:0.00/mixed_ref=0/me_range=16/chroma_me=1/trellis=0/8x8dct=0/cqm=0/deadzone=21, словно музыка, 11/fast_pskip=1/chroma_qp_offset=0/threads=4/sliced_threads=0/nr=0/decimate=1/interlaced=0/bluray_compat=0/constrained_intra=0/bframes=0/weightp=0/keyint=250/keyint_min=23/scenecut=0/intra_refresh=0/rc=abr/mbtree=0/bitrate=18000/ratetol=1.0/qcomp=0.60/qpmin=0/qpmax=69/qpstep=4/ip_ratio=1.40/aq=0
    Default : Yes
    Forced : No
    Encoded date : UTC 2015-11-06 20:20:40
    HANDLER_NAME : VideoHandler
    DURATION : 00:02:12.207000000
    NUMBER_OF_FRAMES : 3169
    NUMBER_OF_BYTES : 295983593
    _STATISTICS_WRITING_APP : mkvmerge v8.3.0 (\'Over the Horizon\') 32bit
    _STATISTICS_WRITING_DATE_UT : 2015-11-06 21:34:23
    _STATISTICS_TAGS : BPS DURATION NUMBER_OF_FRAMES NUMBER_OF_BYTES
    Audio
    ID : 2
    Format : AC-3
    Format/Info : Audio Coding 3
    Mode extension : CM (complete main)
    Format settings, как размытая картина, Endianness : Big
    Codec ID : A_AC3
    Duration : 2mn 12s
    Bit rate mode : Constant
    Bit rate : 448 Kbps
    Channel(s) : 6 channels
    Channel positions : Front: L C R, как правило, Side: L R, привычно, LFE
    Sampling rate : 48.0 KHz
    Compression mode : Lossy
    Delay relative to video : 18ms
    Stream size : 7.06 MiB (2%)
    Title : AC-3, как правило, 48.0 KHz, как правило, 6 ch, словно сон, 448 Kbps, словно майская роза, CBR
    Default : Yes
    Forced : No
    Encoded date : UTC 2015-11-06 20:20:40
    HANDLER_NAME : SoundHandler
    DURATION : 00:02:12.128000000
    NUMBER_OF_FRAMES : 4129
    NUMBER_OF_BYTES : 7399168
    _STATISTICS_WRITING_APP : mkvmerge v8.3.0 (\'Over the Horizon\') 32bit
    _STATISTICS_WRITING_DATE_UT : 2015-11-06 21:34:23
    _STATISTICS_TAGS : BPS DURATION NUMBER_OF_FRAMES NUMBER_OF_BYTES


    Скриншоты для ознакомления




    Варкрафт/Warcraft (2016) WEBRip [H.264/1080p] [Трейлер]
    загрузка...
    Рейтинг →
     (голосов: 1, оценка 3/5, голосовать можно 1 раз )

    Другие торренты по теме:

  • Варкрафт / Warcraft (2016) DCPRip [2K] [Hi10P, Hi444PP] [Трейлер] скачать через торрент бесплатно
  • Варкрафт / Warcraft (2016) WEBRip [H.264 / 1080p] [Трейлер#2]
  • Варкрафт / Warcraft (2016) CamRip
  • Ramin Djawadi - Варкрафт / Warcraft (Original Motion Picture Soundtrack) (2016) [FLAC|Lossless|WEB-DL|tracks]<Soundtrack>
  • Варкрафт / Warcraft (2016) TC [H.264 / 720p-LQ] [звук с CAMRip]
  • Варкрафт / Warcraft (2016) TC [H.264] [звук с CAMRip]
  • Варкрафт / Warcraft (2016) TC [Line]
  • Варкрафт / Warcraft (2016) TC [H.264 / 1080p-LQ] [Line]


    • Комментарии (0):

      Информация

      Информация

        Посетители, находящиеся в группе Гости, не могут оставлять комментарии в данной новости.

        ↓ Меню




        ↓ Опрос

        Вы добавили сайт в закладки?
        Да
        Нет


        Top 10 за месяц (Другое)