.
Авторизация | Регистрация
Хочешь лучшие торренты? Добавь свой email!
Добавить

Торрент скачать бесплатно

» » Секретные материалы / Untitled X-Files Revival (2016) WEBRip [H.264 / 1080p] [Трейлер] скачать через торрент бесплатно




    Секретные материалы / Untitled X-Files Revival (2016) WEBRip [H.264 / 1080p] [Трейлер] скачать через торрент бесплатно

    Опубликовал: Админ | Дата: 26-10-2015, 04:01 | Просмотров: 270

    Производство: США/20th Century Fox Television, Ten Thirteen Productions
    Жанр: Фантастика, Триллер, Детектив
    Режиссер: Крис Картер, Дэрин Морган, Глен Морган

    Актеры
    Дэвид Духовны, Джиллиан Андерсон, Уильям Б. Дэвис, Митч Пилледжи, Аннабет Гиш, Роберт Патрик, Алан Дэйл, Моррис Пэнич, Джефф Гулка, Дакота Хаус

    Описание

    Агенты ФБР Дана Скалли и Фокс Малдер снова расследуют странные и необъяснимые явления.

    Продолжительность: 00: 02: 05
    Качество видео: WEBRip
    Перевод: Многоголосый закадровый, профессиональный
    Видео: AVC, 1920x1080 (16: 9), 29.970 fps, 18.0 Mbps (0.273 bit/pixel)
    Аудио: AC-3, 48.0 KHz, 6 ch, 448 Kbps, CBR
    Код:

    General
    Unique ID : 89527059147773985912000476243185468674 (0x435A48CEBCC6D35189FC272108C58502)
    Complete name : D:VIDEOUntitled-X-Files-Revival-rus_trl.mkv
    Format : Matroska
    Format version : Version 4/Version 2
    File size : 265 MiB
    Duration : 2mn 5s
    Overall bit rate : 17.7 Mbps
    Writing application : Lavf55.37.101
    Writing library : Lavf55.37.101
    Video
    ID : 1
    Format : AVC
    Format/Info : Advanced Video Codec
    Format profile :Baseline@L4.1
    Format settings, CABAC : No
    Format settings, ReFrames : 1 frame
    Codec ID : V_MPEG4/ISO/AVC
    Duration : 2mn 5s
    Bit rate : 16.9 Mbps
    Nominal bit rate : 18.0 Mbps
    Width : 1 920 pixels
    Height : 1 080 pixels
    Display aspect ratio : 16:9
    Frame rate mode : Constant
    Frame rate : 29.970 fps
    Color space : YUV
    Chroma subsampling : 4:2:0
    Bit depth : 8 bits
    Scan type : Progressive
    Bits/(Pixel*Frame) : 0.273
    Stream size : 253 MiB (95%)
    Writing library : x264 core 119
    Encoding settings : cabac=0/ref=1/deblock=0:0:0/analyse=0:0/me=dia/subme=0/psy=1/psy_rd=1.00:0.00/mixed_ref=0/me_range=16/chroma_me=1/trellis=0/8x8dct=0/cqm=0/deadzone=21, 11/fast_pskip=1/chroma_qp_offset=0/threads=4/sliced_threads=0/nr=0/decimate=1/interlaced=0/bluray_compat=0/constrained_intra=0/bframes=0/weightp=0/keyint=250/keyint_min=25/scenecut=0/intra_refresh=0/rc=abr/mbtree=0/bitrate=18000/ratetol=1.0/qcomp=0.60/qpmin=0/qpmax=69/qpstep=4/ip_ratio=1.40/aq=0
    Default : Yes
    Forced : No
    Encoded date : UTC 2015-10-13 06:44:29
    HANDLER_NAME : VideoHandler
    Audio
    ID : 2
    Format : AC-3
    Format/Info : Audio Coding 3
    Mode extension : CM (complete main)
    Format settings, Endianness : Big
    Codec ID : A_AC3
    Duration : 2mn 5s
    Bit rate mode : Constant
    Bit rate : 448 Kbps
    Channel(s) : 6 channels
    Channel positions : Front: L C R, Side: L R, LFE
    Sampling rate : 48.0 KHz
    Bit depth : 32 bits
    Compression mode : Lossy
    Delay relative to video : 16ms
    Stream size : 6.69 MiB (3%)
    Default : Yes
    Forced : No
    Encoded date : UTC 2015-10-13 06:44:29
    HANDLER_NAME : SoundHandler

    Скриншоты для ознакомления



    Время раздачи: 24/7 (до 3х скачавших)

    Секретные материалы/Untitled X-Files Revival (2016) WEBRip [H.264/1080p] [Трейлер]
    загрузка...
    Рейтинг →
     (голосов: 1, оценка 5/5, голосовать можно 1 раз )

    Другие торренты по теме:

  • Секретные материалы. Выпуск №60 (2014.09.) SATRip [RUS / UKR]
  • Секретные материалы: ключи от долголетия (2014) HDTVRip
  • Секретные материалы. Выпуск №59 (2014.09.23) SATRip [RUS / UKR]
  • Секретные материалы. Выпуск №58 (2014.09.22) SATRip [RUS / UKR]
  • Секретные материалы: ключи от долголетия (2014) HDTV [H.264 / 1080i]
  • Секретные материалы. Выпуск №57 (2014.09.18) SATRip [RUS / UKR]
  • Секретные материалы. Выпуск №56 (2014.09.17) SATRip [RUS / UKR]
  • Секретные материалы. Выпуск №55 (2014.09.16) SATRip [RUS / UKR]


    • Комментарии (0):

      Информация

      Информация

        Посетители, находящиеся в группе Гости, не могут оставлять комментарии в данной новости.

        ↓ Меню




        ↓ Опрос

        Вы добавили сайт в закладки?
        Да
        Нет


        Top 10 за месяц (Другое)