.
Авторизация | Регистрация
Хочешь лучшие торренты? Добавь свой email!
Добавить

Торрент скачать бесплатно

» » Хардкор / Hardcore (2015) WEBRip [H.264 / 1080p] [Трейлер] [EN] скачать через торрент бесплатно




    Хардкор / Hardcore (2015) WEBRip [H.264 / 1080p] [Трейлер] [EN] скачать через торрент бесплатно

    Опубликовал: Админ | Дата: 15-09-2015, 04:01 | Просмотров: 565

    Производство: Россия, США
    Жанр: Боевик, Фантастика, Приключения
    Режиссер: Илья Найшуллер

    Актеры
    Шарлто Копли, Данила Козловский, Хейли Беннетт, Андрей Дементьев, Сергей Шнуров, Кирилл Серебренников, Александр Паль, Светлана Устинова, Даша Чаруша, Равшана Куркова

    Описание

    Прекрасная супружеская жизнь рядом с очаровательной Эстель — это все, что помнит главный герой после того, как просыпается в неизвестной научной лаборатории, где в чувства его приводит собственная жена. Но супруга тут же оказывается похищенной, и ничего не понимающий главный герой Генри уже вынужден преследовать монстра Акана, который украл его жену. Теперь ради достижения цели Генри готов на многое.

    Дата мировой премьеры: 12 сентября 2015
    Продолжительность: 00: 02: 26
    Качество видео: WEBRip
    Язык: Английский
    Перевод: Отсутствует
    Видео: AVC, 1920x1080 (16: 9), 23.976 fps, 18.0 Mbps (0.362 bit/pixel)
    Аудио: Vorbis, 44.1 KHz, 6 ch, 320 Kbps (English)
    Код:

    General
    Unique ID : 97106034311318319007032461111241222549 (0x490DF12211679C29E454C52BBFA82995)
    Complete name : D:VIDEOHardcore, 2015.TRL_1080p.mkv
    Format : Matroska
    Format version : Version 4/Version 2
    File size : 315 MiB
    Duration : 2mn 26s
    Overall bit rate mode : Variable
    Overall bit rate : 18.1 Mbps
    Encoded date : UTC 2015-09-12 08:23:26
    Writing application : Lavf55.33.100
    Writing library : Lavf55.33.100
    Video
    ID : 2
    Format : AVC
    Format/Info : Advanced Video Codec
    Format profile : High@L4
    Format settings, CABAC : Yes
    Format settings, ReFrames : 1 frame
    Format settings, GOP : M=1, N=25
    Codec ID : V_MPEG4/ISO/AVC
    Duration : 2mn 26s
    Bit rate mode : Constant
    Bit rate : 18.0 Mbps
    Width : 1 920 pixels
    Height : 1 080 pixels
    Display aspect ratio : 16:9
    Frame rate mode : Constant
    Frame rate : 23.976 fps
    Color space : YUV
    Chroma subsampling : 4:2:0
    Bit depth : 8 bits
    Scan type : Progressive
    Bits/(Pixel*Frame) : 0.362
    Stream size : 303 MiB (96%)
    Default : Yes
    Forced : No
    Encoded date : UTC 2015-09-12 08:23:26
    HANDLER_NAME : VideoHandler
    Audio
    ID : 1
    Format : Vorbis
    Format settings, Floor : 1
    Codec ID : A_VORBIS
    Duration : 2mn 26s
    Bit rate mode : Variable
    Bit rate : 320 Kbps
    Channel(s) : 6 channels
    Sampling rate : 44.1 KHz
    Compression mode : Lossy
    Stream size : 5.58 MiB (2%)
    Writing application : Lavc55.52.102
    Writing library : libVorbis 20090709 (UTC 2009-07-09)
    Default : Yes
    Forced : No
    Encoded date : UTC 2015-09-12 08:23:26
    HANDLER_NAME : SoundHandler


    Скриншоты для ознакомления




    Хардкор/Hardcore (2015) WEBRip [H.264/1080p] [Трейлер] [EN]
    загрузка...
    Рейтинг →
     (голосов: 1, оценка 3/5, голосовать можно 1 раз )

    Другие торренты по теме:

  • Хардкор / Hardcore Henry (2015) HD-TS [H.264] [EN]
  • Хардкор / Hardcore Henry (2015) CAMRip [H.264] [AVO]
  • Хардкор / Hardcore Henry (2015) CAMRip
  • Хардкор / Hardcore Henry (2015) WEBRip [Звук с CAMRip]
  • Хардкор / Hardcore Henry (2015) WEBRip [H.264 / 720p-LQ] [звук с CAMRip]
  • Хардкор / Hardcore Henry (2015) WEBRip [H.264 / 720p-LQ] [Звук с CamRip]
  • Хардкор / Hardcore Henry (2015) WEBRip [H.264 / 720p-LQ] [Line]
  • Хардкор / Hardcore Henry (2015) WEBRip [Line]


    • Комментарии (0):

      Информация

      Информация

        Посетители, находящиеся в группе Гости, не могут оставлять комментарии в данной новости.

        ↓ Меню




        ↓ Опрос

        Вы добавили сайт в закладки?
        Да
        Нет


        Top 10 за месяц (Другое)