.
Авторизация | Регистрация
Хочешь лучшие торренты? Добавь свой email!
Добавить

Торрент скачать бесплатно

» » Выживший / The Revenant (2015) WEBRip [H.264 / 1080p] [Трейлер] скачать через торрент бесплатно




    Выживший / The Revenant (2015) WEBRip [H.264 / 1080p] [Трейлер] скачать через торрент бесплатно

    Опубликовал: Админ | Дата: 30-08-2015, 04:03 | Просмотров: 936

    Производство: США/New Regency Pictures, Anonymous Content, RatPac Entertainmen
    Жанр: Драма, Приключения
    Режиссер: Алехандро Гонсалес Иньярриту

    Актеры
    Леонардо ДиКаприо, Том Харди, Донал Глисон, Уилл Поултер, Пол Андерсон, Лукас Хаас, Брендан Флетчер, Брэд Картер, Хавьер Ботет, Кристоффер Йонер

    Описание

    Основано на реальных событиях!
    Охотник Хью Гласс серьезно ранен на неизведанных просторах американского Дикого Запада. Товарищ Хью по отряду покорителей новых земель Джон Фицжеральд предательски оставляет его умирать в одиночестве. Теперь у Гласса осталось только одно оружие — его сила воли. Он готов бросить вызов первобытной природе, суровой зиме и враждебным племенам индейцев, только чтобы выжить и отомстить Фицжеральду.

    Дата мировой премьеры: 25 декабря 2015
    Дата премьеры в России: 28 января 2016, Двадцатый Век Фокс СНГ
    Продолжительность: 00: 02: 31
    Качество видео: WEBRip
    Перевод: Дублированный
    Видео: AVC, 1920x1080 (16: 9), 23.976 fps, 18.0 Mbps (0.362 bit/pixel)
    Аудио: AC-3, 48.0 KHz, 6 ch, 448 Kbps, CBR (Russian)
    Код:

    General
    Unique ID : 201958502603078447285103441202548397856 (0x97EFCAF2E382AA0A9C1EEDEDDEBD5720)
    Complete name : D:VIDEOtherevenant_trl.mkv
    Format : Matroska
    Format version : Version 4/Version 2
    File size : 325 MiB
    Duration : 2mn 31s
    Overall bit rate : 18.0 Mbps
    Movie name : long_boy for nnm
    Encoded date : UTC 2015-08-29 17:07:19
    Writing application : mkvmerge v8.3.0 (\'Over the Horizon\') 64bit
    Writing library : Lavf55.37.101
    Attachements : cover.jpg
    Video
    ID : 1
    Format : AVC
    Format/Info : Advanced Video Codec
    Format profile :Baseline@L4.1
    Format settings, CABAC : No
    Format settings, ReFrames : 1 frame
    Codec ID : V_MPEG4/ISO/AVC
    Duration : 2mn 31s
    Bit rate : 18.0 Mbps
    Width : 1 920 pixels
    Height : 1 080 pixels
    Display aspect ratio : 16:9
    Frame rate mode : Constant
    Frame rate : 23.976 fps
    Color space : YUV
    Chroma subsampling : 4:2:0
    Bit depth : 8 bits
    Scan type : Progressive
    Bits/(Pixel*Frame) : 0.362
    Stream size : 310 MiB (96%)
    Writing library : x264 core 119
    Encoding settings : cabac=0/ref=1/deblock=0:0:0/analyse=0:0/me=dia/subme=0/psy=1/psy_rd=1.00:0.00/mixed_ref=0/me_range=16/chroma_me=1/trellis=0/8x8dct=0/cqm=0/deadzone=21, 11/fast_pskip=1/chroma_qp_offset=0/threads=4/sliced_threads=0/nr=0/decimate=1/interlaced=0/bluray_compat=0/constrained_intra=0/bframes=0/weightp=0/keyint=250/keyint_min=23/scenecut=0/intra_refresh=0/rc=abr/mbtree=0/bitrate=18000/ratetol=1.0/qcomp=0.60/qpmin=0/qpmax=69/qpstep=4/ip_ratio=1.40/aq=0
    Default : Yes
    Forced : No
    HANDLER_NAME : VideoHandler
    DURATION : 00:02:31.443000000
    NUMBER_OF_FRAMES : 3631
    NUMBER_OF_BYTES : 331894089
    _STATISTICS_WRITING_APP : mkvmerge v8.3.0 (\'Over the Horizon\') 64bit
    _STATISTICS_WRITING_DATE_UT : 2015-08-29 17:07:19
    _STATISTICS_TAGS : BPS DURATION NUMBER_OF_FRAMES NUMBER_OF_BYTES
    Audio
    ID : 2
    Format : AC-3
    Format/Info : Audio Coding 3
    Mode extension : CM (complete main)
    Format settings, Endianness : Big
    Codec ID : A_AC3
    Duration : 2mn 31s
    Bit rate mode : Constant
    Bit rate : 448 Kbps
    Channel(s) : 6 channels
    Channel positions : Front: L C R, Side: L R, LFE
    Sampling rate : 48.0 KHz
    Compression mode : Lossy
    Delay relative to video : -5ms
    Stream size : 8.09 MiB (2%)
    Language : English
    Default : Yes
    Forced : No
    Encoded date : UTC 2015-07-30 07:21:13
    HANDLER_NAME : IsoMedia File Produced by Google, 5-11-2011
    DURATION : 00:02:31.488000000
    NUMBER_OF_FRAMES : 4734
    NUMBER_OF_BYTES : 8483328
    _STATISTICS_WRITING_APP : mkvmerge v8.3.0 (\'Over the Horizon\') 64bit
    _STATISTICS_WRITING_DATE_UT : 2015-08-29 17:07:19
    _STATISTICS_TAGS : BPS DURATION NUMBER_OF_FRAMES NUMBER_OF_BYTES


    Скриншоты для ознакомления




    Выживший/The Revenant (2015) WEBRip [H.264/1080p] [Трейлер]
    загрузка...
    Рейтинг →
     (голосов: 1, оценка 5/5, голосовать можно 1 раз )

    Другие торренты по теме:

  • Выживший / The Revenant (2015) HDRip [H.264] [MP4|1280x720]
  • Выживший / The Revenant (2015) HDRip [H.264] [MP4|1920x1080]
  • Выживший / The Revenant (2015) WEBRip [H.264 / 1080p] [Трейлер] [EN] скачать через торрент бесплатно
  • Выживший / The Revenant (2015) DCPRip [2K] [Hi10P, Hi444PP] [Трейлер] скачать через торрент бесплатно
  • Выживший / The Revenant (2015) DVDScr [H.264] скачать через торрент бесплатно
  • Выживший / The Revenant (2015) DVDScr скачать через торрент бесплатно
  • Выживший / The Revenant (2015) DVDScr [EN] скачать через торрент бесплатно
  • Выживший / The Revenant (2015) DVDScr [H.264] скачать через торрент бесплатно


    • Комментарии (0):

      Информация

      Информация

        Посетители, находящиеся в группе Гости, не могут оставлять комментарии в данной новости.

        ↓ Меню




        ↓ Опрос

        Вы добавили сайт в закладки?
        Да
        Нет


        Top 10 за месяц (Другое)