.
Авторизация | Регистрация
Хочешь лучшие торренты? Добавь свой email!
Добавить

Торрент скачать бесплатно

» » Война роботов (Мертвые жители) / Robot Revolution (2015) DVDRip [H.264] [VO] [PR] торрент скачать бесплатно




    Война роботов (Мертвые жители) / Robot Revolution (2015) DVDRip [H.264] [VO] [PR] торрент скачать бесплатно

    Опубликовал: Админ | Дата: 1-12-2017, 05:01 | Просмотров: 0

    Производство: США, Pandora Machine
    Жанр: Фантастика
    Режиссер: Эндрю Беллвар

    Актеры
    Вирджиния Логан, Мэри Мерфи, Мэттью Трамбалл, Кейт Бриттон, Кимбэлл Браун, Стив Дейган

    Описание

    В недалеком будущем, когда каждый житель общества контролируется машинами, терроризм заставил государство ввести военное положение. Во время обычной проверки в многоэтажной квартире хорошо вооруженный полицейский и партнер- андроид обнаруживают, что что-то заставляет жителей зданий срываться, заставляя нападать на других. Однако, когда они продолжают расследование, то раскрывают секрет, который правительство все время пыталось скрыть.

    Возраст: этот продукт не был классифицирован
    Рейтинг MPAA: этот продукт не был классифицирован
    Продолжительность: 01: 21: 38
    Качество видео: DVDRip
    Озвучка: Одноголосый закадровый любительский (Хихикающий доктор)
    Субтитры: отсутствуют
    Реклама: в титрах рекламный стишок
    Видео: AVC/H.264, 720х304, ~1697 Kbps
    Аудио: MP3, 2 ch, 192 Kbps

    бщее
    Уникальный идентификатор : 203407481369114685167452143810259425980 (0x9906DB1E1AE4D98288357D619C439ABC)
    Полное имя : E: MMMMRobot.Revolution.Xixidok.mkv
    Формат : Matroska
    Версия формата : Version 4/Version 2
    Размер файла : 1, 08 Гбайт
    Продолжительность : 1 ч. 21 м.
    Режим общего битрейта : Переменный
    Общий поток : 1887 Кбит/сек
    Дата кодирования : UTC 2017-11-21 10: 14: 09
    Программа кодирования : mkvmerge v15.0.0 (\'Duel with the Devil\') 64-bit
    Библиотека кодирования : libebml v1.3.5 + libmatroska v1.4.5
    Видео
    Идентификатор : 1
    Формат : AVC
    Формат/Информация : Advanced Video Codec
    Профиль формата : High@L4.1
    Параметр CABAC формата : Да
    Параметр ReFrames формата : 3 кадра
    Идентификатор кодека : V_MPEG4/ISO/AVC
    Продолжительность : 1 ч. 21 м.
    Вид битрейта : Переменный
    Битрейт : 1697 Кбит/сек
    Максимальный битрейт : 40, 0 Мбит/сек
    Ширина : 720 пикселей
    Высота : 304 пикселя
    Соотношение сторон : 2, 35: 1
    Режим частоты кадров : Постоянный
    Частота кадров : 23, 976 (24000/1001) кадра/сек
    Цветовое пространство : YUV
    Субдискретизация насыщенности : 4: 2: 0
    Битовая глубина : 8 бит
    Тип развёртки : Прогрессивная
    Бит/(Пиксели*Кадры) : 0.323
    Размер потока : 991 Мбайт (90%)
    Библиотека кодирования : x264 core 146 r2538 121396c
    Настройки программы : cabac=1/ref=4/deblock=1: -1: -1/analyse=0x3: 0x113/me=umh/subme=9/psy=1/psy_rd=1.00: 0.15/mixed_ref=1/me_range=18/chroma_me=1/trellis=2/8x8dct=1/cqm=0/deadzone=21, 11/fast_pskip=0/chroma_qp_offset=-3/threads=12/lookahead_threads=1/sliced_threads=0/slices=4/nr=0/decimate=1/interlaced=0/bluray_compat=0/constrained_intra=0/bframes=3/b_pyramid=1/b_adapt=2/b_bias=0/direct=1/weightb=1/open_gop=0/weightp=0/keyint=23/keyint_min=1/scenecut=40/intra_refresh=0/rc_lookahead=23/rc=crf/mbtree=1/crf=21.0/qcomp=0.60/qpmin=10/qpmax=51/qpstep=4/vbv_maxrate=40000/vbv_bufsize=30000/crf_max=0.0/nal_hrd=vbr/filler=0/ip_ratio=1.40/aq=1: 1.00
    Default : Да
    Forced : Нет
    Цветовой диапазон : Full
    Основные цвета : BT.709
    Характеристики трансфера : BT.709
    Коэффициенты матрицы : BT.709
    Аудио
    Идентификатор : 2
    Формат : MPEG Audio
    Версия формата : Version 1
    Профиль формата : Layer 3
    Идентификатор кодека : A_MPEG/L3
    Идентификатор кодека/Подсказка : MP3
    Продолжительность : 1 ч. 21 м.
    Вид битрейта : Постоянный
    Битрейт : 192 Кбит/сек
    Каналы : 2 канала
    Частота : 44, 1 КГц
    Частота кадров : 38, 281 кадров/сек (1152 spf)
    Метод сжатия : С потерями
    Размер потока : 112 Мбайт (10%)
    Default : Да
    Forced : Нет

    Скриншоты для ознакомления





    Все одноименные релизы в Клубе
    Время раздачи: с 12: 00 до 22: 00 (до появления первых 3-5 скачавших)


    Война роботов (Мертвые жители)/Robot Revolution (2015) DVDRip [H.264] [VO] [PR]
    загрузка...
    Рейтинг →
     (голосов: 1, оценка 5/5, голосовать можно 1 раз )

    Другие торренты по теме:

  • В. С. Махалов, А. В. Бешенцев (ред.) | Война, история, идеология [Буржуазная военная история на службе милитаризма] (1974) [DJVU]
  • Б. П. Кандидов | Церковь и гражданская война на Юге [материалы к истории религиозной контрреволюции в годы гражданской войны] (1931) [PDF]
  • 60 минут. Война нервов, война фальшивок (12.10.2016) SATRip
  • Апокалипсис: Первая мировая война (1-2 серия из 5) / Apocalypse: World War I (2014) HDTV [H.264 / 1080i] (Обновляемая)
  • Апокалипсис: Первая мировая война (1-2 серия из 5) / Apocalypse: World War I (2014) HDTVRip (Обновляемая)
  • Апокалипсис: Первая мировая война (1-2 серия из 5) / Apocalypse: World War I (2014) HDTVRip [H.264 / 720p-LQ] (Обновляемая)
  • Великая война. Серия 2. Власть машин (2014.09.21) SATRip
  • Великая война. Серия 3. Власть идей (2014.09.28) SATRip


    • Комментарии (0):

      Информация

      Информация

        Посетители, находящиеся в группе Гости, не могут оставлять комментарии в данной новости.

        ↓ Меню




        ↓ Опрос

        Вы добавили сайт в закладки?
        Да
        Нет


        Top 10 за месяц (Другое)