.
Авторизация | Регистрация
Хочешь лучшие торренты? Добавь свой email!
Добавить

Торрент скачать бесплатно

» » Камера бесконечности / Infinity Chamber (2016) WEB-DLRip [MVO] [AD] торрент скачать бесплатно




    Камера бесконечности / Infinity Chamber (2016) WEB-DLRip [MVO] [AD] торрент скачать бесплатно

    Опубликовал: Админ | Дата: 30-11-2017, 05:00 | Просмотров: 0

    Производство: США/Latest Trick Productions, Milloy Films
    Жанр: Триллер, Фантастика
    Режиссер: Трейвис Миллоу

    Актеры
    Крис Келли, Кассандра Кларк, Чак Клейн, Брэндон Лумис, Гаррет Бекке, Андреа Энни, Оуэнс Сьюзан, Белкин Брайан, Раговин Аманда, Лау Луи Клоц

    Описание

    Главного героя заперли в автоматизированной тюрьме. Ему предстоит обхитрить компьютер, чтобы сбежать и попытаться найти дорогу назад — во внешний мир, которого уже может не существовать.

    Дата мировой премьеры: 03.12.2016
    Дата российской премьеры: неизвестно
    Продолжительность: 01: 43: 49
    Качество видео: WEB-DLRip
    Перевод: Многоголосый закадровый, любительский (GreenРай Studio)
    Субтитры: отсутствуют
    Реклама: присутствуют аудио и видео вставки рекламы
    Видео: Xvid, 720x304, ~1488 Kbps
    Аудио: AC3, 2 ch, 384 Kbps

    General
    Complete name : /media/win/TORRENT/UPLOAD TORRENTS/Infinity.Chamber.2016.P.WEB-DLRip.1400MB.avi
    Format : AVI
    Format/Info : Audio Video Interleave
    File size : 1.36 GiB
    Duration : 1 h 43 min
    Overall bit rate : 1 881 kb/s
    Writing application : VirtualDubMod 1.5.10.2 (build 2540/release)
    Writing library : VirtualDubMod build 2540/release
    Video
    ID : 0
    Format : MPEG-4 Visual
    Format profile : Advanced Simple@L5
    Format settings : BVOP2
    Format settings, BVOP : 2
    Format settings, QPel : No
    Format settings, GMC : No warppoints
    Format settings, Matrix : Default (MPEG)
    Codec ID : XVID
    Codec ID/Hint : XviD
    Duration : 1 h 43 min
    Bit rate : 1 488 kb/s
    Width : 720 pixels
    Height : 304 pixels
    Display aspect ratio : 2.35: 1
    Frame rate : 23.976 (24000/1001) FPS
    Color space : YUV
    Chroma subsampling : 4: 2: 0
    Bit depth : 8 bits
    Scan type : Progressive
    Compression mode : Lossy
    Bits/(Pixel*Frame) : 0.284
    Stream size : 1.08 GiB (79%)
    Writing library : XviD 1.2.1 (UTC 2008-12-04)
    Audio
    ID : 1
    Format : AC-3
    Format/Info : Audio Coding 3
    Codec ID : 2000
    Duration : 1 h 43 min
    Bit rate mode : Constant
    Bit rate : 384 kb/s
    Channel(s) : 2 channels
    Channel positions : Front: L R
    Sampling rate : 48.0 kHz
    Frame rate : 31.250 FPS (1536 SPF)
    Bit depth : 16 bits
    Compression mode : Lossy
    Stream size : 285 MiB (20%)
    Alignment : Split accross interleaves
    Interleave, duration : 42 ms (1.00 video frame)
    Interleave, preload duration : 500 ms
    Service kind : Complete Main


    Камера бесконечности/Infinity Chamber (2016) WEB-DLRip [MVO] [AD]
    загрузка...
    Рейтинг →
     (голосов: 1, оценка 4/5, голосовать можно 1 раз )

    Другие торренты по теме:

  • Камера бесконечности / Infinity Chamber (2016) WEB-DLRip [H.264 / 1080p-LQ] [MVO] [AD]
  • Камера бесконечности / Infinity Chamber (2016) WEB-DLRip [MVO] [AD]


    • Комментарии (0):

      Информация

      Информация

        Посетители, находящиеся в группе Гости, не могут оставлять комментарии в данной новости.

        ↓ Меню




        ↓ Опрос

        Вы добавили сайт в закладки?
        Да
        Нет


        Top 10 за месяц (Другое)