.
Авторизация | Регистрация
Хочешь лучшие торренты? Добавь свой email!
Добавить

Торрент скачать бесплатно

» » Компаньон / El acompanante (2015) WEB-DLRip [MVO] [AD] торрент скачать бесплатно




    Компаньон / El acompanante (2015) WEB-DLRip [MVO] [AD] торрент скачать бесплатно

    Опубликовал: Админ | Дата: 24-11-2017, 05:00 | Просмотров: 0

    Производство: Панама, Франция, Колумбия, Венесуэла, Куба/Areté Audiovisual, Igolai Producciones
    Жанр: Драма
    Режиссер: Павел Жиро

    Актеры
    Camila Arteche, Армандо Мигель Гомес, Broselianda Hernández, Ётуэль Ромеро, Джазз Вила

    Описание

    В 1987 году в Гаване боксер-тяжеловес Горацио Ромеро подвергается принудительной госпитализации со стороны анти-допингового комитета, ведь его анализ оказался положительным. Он отправляется в военный госпиталь, где знакомится с парнем Даниелем, который болен ВИЧ. Вместе они пытаются достичь поставленных целей: Даниель хочет прожить последние дни на свободе, а Горацио - вновь вернуться на ринг.

    Релиз от: KOSHARA
    Продолжительность: 01: 45: 03
    Качество видео: WEB-DLRip
    Перевод: Многоголосый закадровый (Синема УС)
    Субтитры: Английские (неотключаемые)
    Реклама: присутствуют аудио и видео вставки рекламы
    Видео: Xvid, 720х400, ~1660 Kbps
    Аудио: AC3, 2 ch, 192 Kbps

    General
    Complete name : /media/win/TORRENT/UPLOAD TORRENTS/The.Companion.2016.P.WEB-DLRip.avi
    Format : AVI
    Format/Info : Audio Video Interleave
    File size : 1.37 GiB
    Duration : 1 h 45 min
    Overall bit rate : 1 862 kb/s
    Writing application : VirtualDubMod 1.5.10.2 (build 2540/release)
    Writing library : VirtualDubMod build 2540/release
    Video
    ID : 0
    Format : MPEG-4 Visual
    Format profile : Advanced Simple@L5
    Format settings : BVOP2
    Format settings, BVOP : 2
    Format settings, QPel : No
    Format settings, GMC : No warppoints
    Format settings, Matrix : Default (MPEG)
    Codec ID : XVID
    Codec ID/Hint : XviD
    Duration : 1 h 45 min
    Bit rate : 1 661 kb/s
    Width : 720 pixels
    Height : 400 pixels
    Display aspect ratio : 16: 9
    Frame rate : 23.976 (24000/1001) FPS
    Color space : YUV
    Chroma subsampling : 4: 2: 0
    Bit depth : 8 bits
    Scan type : Progressive
    Compression mode : Lossy
    Bits/(Pixel*Frame) : 0.241
    Stream size : 1.22 GiB (89%)
    Writing library : XviD 1.2.1 (UTC 2008-12-04)
    Audio
    ID : 1
    Format : AC-3
    Format/Info : Audio Coding 3
    Codec ID : 2000
    Duration : 1 h 45 min
    Bit rate mode : Constant
    Bit rate : 192 kb/s
    Channel(s) : 2 channels
    Channel positions : Front: L R
    Sampling rate : 48.0 kHz
    Frame rate : 31.250 FPS (1536 SPF)
    Bit depth : 16 bits
    Compression mode : Lossy
    Stream size : 144 MiB (10%)
    Alignment : Split accross interleaves
    Interleave, duration : 42 ms (1.00 video frame)
    Interleave, preload duration : 500 ms
    Service kind : Complete Main

    Скриншоты для ознакомления



    Все одноименные релизы в Клубе
    Время раздачи: с 09: 00 до 22: 00 до пяти скачавших (до появления первых 3-5 скачавших)


    Компаньон/El acompanante (2015) WEB-DLRip [MVO] [AD]
    загрузка...
    Рейтинг →
     (голосов: 1, оценка 5/5, голосовать можно 1 раз )

    Другие торренты по теме:

  • BATTLEFIELD 4 Commander [Online] 2.2.0 - Приложение-компаньон для Battlefield 4 [Ru] скачать через торрент бесплатно
  • Компаньон / The Associate (1996) DVDRip [H.264]
  • Компаньон / The Associate (1996) BDRemux [H.264 / 1080p]
  • Компаньон / The Associate (1996) BDRip [H.264 / 1080p]
  • Компаньон / The Associate (1996) Blu-ray [H.264 / 1080p] [Custom]
  • Компаньон / The Associate (1996) BDRip [H.264 / 720p]
  • Компаньон / The Associate (1996) BDRip [H.264]


    • Комментарии (0):

      Информация

      Информация

        Посетители, находящиеся в группе Гости, не могут оставлять комментарии в данной новости.

        ↓ Меню




        ↓ Опрос

        Вы добавили сайт в закладки?
        Да
        Нет


        Top 10 за месяц (Другое)