.
Авторизация | Регистрация
Хочешь лучшие торренты? Добавь свой email!
Добавить

Торрент скачать бесплатно

» » Сборник клипов - Best of Hits 90s от ALEXnROCK (2017) WEB-Rip (H.264 / 720p-LQ) (часть 2) торрент скачать бесплатно




    Сборник клипов - Best of Hits 90s от ALEXnROCK (2017) WEB-Rip (H.264 / 720p-LQ) (часть 2) торрент скачать бесплатно

    Опубликовал: Админ | Дата: 21-11-2017, 05:00 | Просмотров: 1

    Название: Best of Hits 90s от ALEXnROCK
    Год выхода: 2017
    Жанр: Pop

    Описание

    В сборник вошли самые хитовые и фишкастые клипы лихих 90х. В нём я постарался отразить все обояние того десятилетия, пускай неопределенного и иногда даже дикого, но все же думаю многим приятно будет вспомнить то время. Время поднятия с колен нашей великой и большой страны, имею в виду весь бывший союз. Это 2я часть сборника. Смотрите, слушайте и наслаждайтесь. Все лучшее для вас. ALEXnROCK
    Ремастеринг видео, звук CD.
    Продолжительность: 03: 49: 08
    Качество видео: DVDRip
    Видео: AVC/H.264, 1280x720 (16x9) 1280x888 (4x3) 25 fps (High@L4) 3400kbps
    Аудио: PCM, 2 ch, 1536kbps 48000Hz
    Треклист:
    000 Intro
    059 La Bouche - Sweet Dreams
    060 Mr.Credo - Мама азия
    061 Modern Talking - China In Her Eyes (feat. Eric Singleton
    062 Mr. President - Coco Jambo
    063 Savage Garden - I Want You
    064 Seal - Kiss From A Rose
    065 Кар-Мэн - Лондон гуд-бай
    066 Roxette - Joyride
    067 Backstreet Boys - I\'ll Never Break Your Heart
    068 Capella - U got to Let The Music
    069 No Mercy - Where Do You Go
    070 Dr. Alban - Let The Beat Go On
    071 Eros Ramazzotti - Cose Della Vita
    072 Леонид Агутин - Парень чернокожий
    073 Lighthouse Family - High
    074 Haddaway - Fly away
    075 Health Hunter - Revolution In Paradise
    076 C-Block - So Strumg Out
    077 Roxette - The Big Love
    078 Дмитрий Маликов - Спой мне
    079 Tarkan - Bu Gece
    080 Scatman John - Scatman
    081 Tony Braxton - Un-Break My Heart
    082 Ace Of Base - Cruel Summer
    083 Владимир Кузьмин - Я не забуду тебя
    084 Dr. Alban - Long Time Ago (Sash! Mix)
    085 Culture Beat - Anything
    086 Five - Got The Feelin
    087 2 Unlimited - Tribal Dance
    088 Ефрем Амирамов - Молодая
    089 DJ Bobo - Let The Dream Come True
    090 Blue System - Only with you
    091 Cheb Khaled - Aicha
    092 Depeche Mode - Personal Jesus
    093 Haddaway - Rock My Heart
    094 Наталья Ветлицкая - Посмотри в глаза
    095 Mr. President - Up\'n Away
    096 Madonna - Vogue
    097 E-Type - This Is The Way
    098 Backstreet Boys - Get Down
    099 Богдан Титомир - Делай как я
    100 Erasure - I Love To Hate
    101 Ace Of Base - Life Is A Flower
    102 Dr. Alban - Mr. DJ
    103 Mariah Carey - Without You (live)
    104 George Michael - Too Funky
    105 Modern Talking - Ready For The Victory
    106 Иванушки Int - Кукла
    107 U96 - Das Boot
    108 Mo-Do - Eins, Zwei, Polizei
    109 Spice Girls - 2 Become 1
    110 La Bouche - You Won\'t Forget Me (Mix)
    111 2 Brothers On The 4th Floor - Dreams
    112 Sade - No Ordinary Love
    113 Кар-Мэн - Бэд рашинз
    114 Roxette - Fading Like a Flower
    115 E-Type - Russian Lullaby

    Общее
    Уникальный идентификатор : 251204050506169805135853215910923525308 (0xBCFC23EAD6F73DBC8639BCF6632ADCBC)
    Полное имя : Best Hits 90 from ALEXnROCK. mkv (Disc 2)00 Intro ALEXnROCK.mkv
    Формат : Matroska
    Версия формата : Version 4/Version 2
    Размер файла : 38, 8 Мбайт
    Продолжительность : 1 м. 7 с.
    Общий поток : 4830 Кбит/сек
    Дата кодирования : UTC 2017-07-27 22: 00: 01
    Программа кодирования : mkvmerge v9.8.0 (\'Kuglblids\') 64bit
    Библиотека кодирования : libebml v1.3.4 + libmatroska v1.4.5
    Видео
    Идентификатор : 1
    Формат : AVC
    Формат/Информация : Advanced Video Codec
    Профиль формата : High@L4
    Настройки формата : CABAC/4 Ref Frames
    Параметр CABAC формата : Да
    Параметр RefFrames формата : 4 кадра
    Идентификатор кодека : V_MPEG4/ISO/AVC
    Продолжительность : 1 м. 7 с.
    Битрейт : 3400 Кбит/сек
    Ширина : 1280 пикселей
    Высота : 720 пикселей
    Соотношение сторон : 16: 9
    Режим частоты кадров : Постоянный
    Частота кадров : 29, 970 (29970/1000) кадров/сек
    Цветовое пространство : YUV
    Субдискретизация насыщенности : 4: 2: 0
    Битовая глубина : 8 бит
    Тип развёртки : Прогрессивная
    Бит/(Пиксели*Кадры) : 0.123
    Размер потока : 26, 4 Мбайт (68%)
    Библиотека кодирования : x264 core 146 r2538 121396c
    Настройки программы : cabac=1/ref=3/deblock=1: -1: -1/analyse=0x3: 0x113/me=hex/subme=7/psy=1/psy_rd=1.00: 0.20/mixed_ref=1/me_range=16/chroma_me=1/trellis=1/8x8dct=1/cqm=0/deadzone=21, 11/fast_pskip=1/chroma_qp_offset=-3/threads=12/lookahead_threads=2/sliced_threads=0/nr=0/decimate=0/interlaced=0/bluray_compat=0/constrained_intra=0/bframes=3/b_pyramid=2/b_adapt=1/b_bias=0/direct=3/weightb=1/open_gop=0/weightp=2/keyint=250/keyint_min=25/scenecut=40/intra_refresh=0/rc_lookahead=40/rc=2pass/mbtree=1/bitrate=3400/ratetol=1.0/qcomp=0.60/qpmin=0/qpmax=69/qpstep=4/cplxblur=20.0/qblur=0.5/vbv_maxrate=14000/vbv_bufsize=14000/nal_hrd=none/filler=0/ip_ratio=1.40/aq=1: 1.00
    Default : Да
    Forced : Нет
    Аудио
    Идентификатор : 2
    Формат : PCM
    Идентификатор кодека : A_PCM/INT/LIT
    Продолжительность : 1 м. 7 с.
    Вид битрейта : Постоянный
    Битрейт : 1536 Кбит/сек
    Каналы : 2 канала
    Частота : 48, 0 КГц
    Частота кадров : 32, 009 кадра/сек (1500 SPF)
    Битовая глубина : 16 бит
    Размер потока : 12, 3 Мбайт (32%)
    Default : Да
    Forced : Нет
    Общее
    Уникальный идентификатор : 217257330897075767122766601175137598387 (0xA3723D6B7A56F567B61281C062813BB3)
    Полное имя : E: Сборник 90хBest Hits 90 from ALEXnROCK. mkv (Disc 2)59 La Bouche - Sweet Dreams ALEXnROCK.mkv
    Формат : Matroska
    Версия формата : Version 2
    Размер файла : 120 Мбайт
    Продолжительность : 3 м. 23 с.
    Общий поток : 4941 Кбит/сек
    Дата кодирования : UTC 2017-03-01 10: 02: 45
    Программа кодирования : mkvmerge v7.8.0 (\'River Man\') 32bit built on Apr 3 2015 12: 11: 22
    Библиотека кодирования : libebml v1.3.1 + libmatroska v1.4.2
    Видео
    Идентификатор : 1
    Формат : AVC
    Формат/Информация : Advanced Video Codec
    Профиль формата : High@L4
    Настройки формата : CABAC/4 Ref Frames
    Параметр CABAC формата : Да
    Параметр RefFrames формата : 4 кадра
    Идентификатор кодека : V_MPEG4/ISO/AVC
    Продолжительность : 3 м. 23 с.
    Номинальный битрейт : 3401 Кбит/сек
    Ширина : 1280 пикселей
    Высота : 664 пикселя
    Соотношение сторон : 1, 928
    Режим частоты кадров : Постоянный
    Частота кадров : 29, 970 (30000/1001) кадров/сек
    Цветовое пространство : YUV
    Субдискретизация насыщенности : 4: 2: 0
    Битовая глубина : 8 бит
    Тип развёртки : Прогрессивная
    Бит/(Пиксели*Кадры) : 0.134
    Библиотека кодирования : x264 core 146 r2538 121396c
    Настройки программы : cabac=1/ref=3/deblock=1: -1: -1/analyse=0x3: 0x113/me=hex/subme=7/psy=1/psy_rd=1.00: 0.20/mixed_ref=1/me_range=16/chroma_me=1/trellis=1/8x8dct=1/cqm=0/deadzone=21, 11/fast_pskip=1/chroma_qp_offset=-3/threads=12/lookahead_threads=2/sliced_threads=0/nr=0/decimate=0/interlaced=0/bluray_compat=0/constrained_intra=0/bframes=3/b_pyramid=2/b_adapt=1/b_bias=0/direct=3/weightb=1/open_gop=0/weightp=2/keyint=250/keyint_min=25/scenecut=40/intra_refresh=0/rc_lookahead=40/rc=2pass/mbtree=1/bitrate=3401/ratetol=1.0/qcomp=0.60/qpmin=0/qpmax=69/qpstep=4/cplxblur=20.0/qblur=0.5/vbv_maxrate=14000/vbv_bufsize=14000/nal_hrd=none/filler=0/ip_ratio=1.40/aq=1: 1.00
    Default : Да
    Forced : Нет
    Аудио
    Идентификатор : 2
    Формат : PCM
    Идентификатор кодека : A_PCM/INT/LIT
    Продолжительность : 3 м. 23 с.
    Вид битрейта : Постоянный
    Каналы : 2 канала
    Частота : 48, 0 КГц
    Битовая глубина : 16 бит
    Default : Да
    Forced : Нет
    Общее
    Уникальный идентификатор : 186317708015806019412472764312451022169 (0x8C2B7C3CDD6693E1AC3F880992EFFD59)
    Полное имя : E: Сборник 90хBest Hits 90 from ALEXnROCK. mkv (Disc 2)60 Mr.Credo - Мама азия ALEXnROCK.mkv
    Формат : Matroska
    Версия формата : Version 4/Version 2
    Размер файла : 160 Мбайт
    Продолжительность : 4 м. 33 с.
    Общий поток : 4917 Кбит/сек
    Дата кодирования : UTC 2017-03-20 17: 35: 10
    Программа кодирования : mkvmerge v9.8.0 (\'Kuglblids\') 64bit
    Библиотека кодирования : libebml v1.3.4 + libmatroska v1.4.5
    Видео
    Идентификатор : 1
    Формат : AVC
    Формат/Информация : Advanced Video Codec
    Профиль формата : High@L4
    Настройки формата : CABAC/4 Ref Frames
    Параметр CABAC формата : Да
    Параметр RefFrames формата : 4 кадра
    Идентификатор кодека : V_MPEG4/ISO/AVC
    Продолжительность : 4 м. 33 с.
    Битрейт : 3401 Кбит/сек
    Ширина : 1280 пикселей
    Высота : 720 пикселей
    Соотношение сторон : 16: 9
    Режим частоты кадров : Постоянный
    Частота кадров : 25, 000 кадров/сек
    Цветовое пространство : YUV
    Субдискретизация насыщенности : 4: 2: 0
    Битовая глубина : 8 бит
    Тип развёртки : Прогрессивная
    Бит/(Пиксели*Кадры) : 0.148
    Размер потока : 111 Мбайт (69%)
    Библиотека кодирования : x264 core 146 r2538 121396c
    Настройки программы : cabac=1/ref=3/deblock=1: -1: -1/analyse=0x3: 0x113/me=hex/subme=7/psy=1/psy_rd=1.00: 0.20/mixed_ref=1/me_range=16/chroma_me=1/trellis=1/8x8dct=1/cqm=0/deadzone=21, 11/fast_pskip=1/chroma_qp_offset=-3/threads=12/lookahead_threads=2/sliced_threads=0/nr=0/decimate=0/interlaced=0/bluray_compat=0/constrained_intra=0/bframes=3/b_pyramid=2/b_adapt=1/b_bias=0/direct=3/weightb=1/open_gop=0/weightp=2/keyint=250/keyint_min=25/scenecut=40/intra_refresh=0/rc_lookahead=40/rc=2pass/mbtree=1/bitrate=3401/ratetol=1.0/qcomp=0.60/qpmin=0/qpmax=69/qpstep=4/cplxblur=20.0/qblur=0.5/vbv_maxrate=14000/vbv_bufsize=14000/nal_hrd=none/filler=0/ip_ratio=1.40/aq=1: 1.00
    Default : Да
    Forced : Нет
    Аудио
    Идентификатор : 2
    Формат : PCM
    Идентификатор кодека : A_PCM/INT/LIT
    Продолжительность : 4 м. 29 с.
    Вид битрейта : Постоянный
    Битрейт : 1536 Кбит/сек
    Каналы : 2 канала
    Частота : 48, 0 КГц
    Частота кадров : 32, 001 кадра/сек (1500 SPF)
    Битовая глубина : 16 бит
    Размер потока : 49, 3 Мбайт (31%)
    Default : Да
    Forced : Нет
    Общее
    Уникальный идентификатор : 210123753261591278137856697468049999877 (0x9E145CE34D5051FB9B04F276B45CC805)
    Полное имя : E: Сборник 90хBest Hits 90 from ALEXnROCK. mkv (Disc 2)61 Modern Talking - China In Her Eyes (feat. Eric Singleton) ALEXnROCK.mkv
    Формат : Matroska
    Версия формата : Version 4/Version 2
    Размер файла : 112 Мбайт
    Продолжительность : 3 м. 9 с.
    Общий поток : 4941 Кбит/сек
    Дата кодирования : UTC 2017-03-21 19: 51: 49
    Программа кодирования : mkvmerge v9.8.0 (\'Kuglblids\') 64bit
    Библиотека кодирования : libebml v1.3.4 + libmatroska v1.4.5
    Видео
    Идентификатор : 1
    Формат : AVC
    Формат/Информация : Advanced Video Codec
    Профиль формата : High@L4
    Настройки формата : CABAC/4 Ref Frames
    Параметр CABAC формата : Да
    Параметр RefFrames формата : 4 кадра
    Идентификатор кодека : V_MPEG4/ISO/AVC
    Продолжительность : 3 м. 9 с.
    Битрейт : 3401 Кбит/сек
    Ширина : 1280 пикселей
    Высота : 672 пикселя
    Соотношение сторон : 1, 905
    Режим частоты кадров : Постоянный
    Частота кадров : 25, 000 кадров/сек
    Цветовое пространство : YUV
    Субдискретизация насыщенности : 4: 2: 0
    Битовая глубина : 8 бит
    Тип развёртки : Прогрессивная
    Бит/(Пиксели*Кадры) : 0.158
    Размер потока : 77, 1 Мбайт (69%)
    Библиотека кодирования : x264 core 146 r2538 121396c
    Настройки программы : cabac=1/ref=3/deblock=1: -1: -1/analyse=0x3: 0x113/me=hex/subme=7/psy=1/psy_rd=1.00: 0.20/mixed_ref=1/me_range=16/chroma_me=1/trellis=1/8x8dct=1/cqm=0/deadzone=21, 11/fast_pskip=1/chroma_qp_offset=-3/threads=12/lookahead_threads=2/sliced_threads=0/nr=0/decimate=0/interlaced=0/bluray_compat=0/constrained_intra=0/bframes=3/b_pyramid=2/b_adapt=1/b_bias=0/direct=3/weightb=1/open_gop=0/weightp=2/keyint=250/keyint_min=25/scenecut=40/intra_refresh=0/rc_lookahead=40/rc=2pass/mbtree=1/bitrate=3401/ratetol=1.0/qcomp=0.60/qpmin=0/qpmax=69/qpstep=4/cplxblur=20.0/qblur=0.5/vbv_maxrate=14000/vbv_bufsize=14000/nal_hrd=none/filler=0/ip_ratio=1.40/aq=1: 1.00
    Default : Да
    Forced : Нет
    Аудио
    Идентификатор : 2
    Формат : PCM
    Идентификатор кодека : A_PCM/INT/LIT
    Продолжительность : 3 м. 9 с.
    Вид битрейта : Постоянный
    Битрейт : 1536 Кбит/сек
    Каналы : 2 канала
    Частота : 48, 0 КГц
    Частота кадров : 32, 003 кадра/сек (1500 SPF)
    Битовая глубина : 16 бит
    Размер потока : 34, 8 Мбайт (31%)
    Default : Да
    Forced : Нет
    Общее
    Уникальный идентификатор : 225501460772784728025953912303745183097 (0xA9A6006795029CE0B9C4C461CB5F2D79)
    Полное имя : E: Сборник 90хBest Hits 90 from ALEXnROCK. mkv (Disc 2)62 Mr. President - Coco Jambo ALEXnROCK.mkv
    Формат : Matroska
    Версия формата : Version 4/Version 2
    Размер файла : 128 Мбайт
    Продолжительность : 3 м. 36 с.
    Общий поток : 4944 Кбит/сек
    Дата кодирования : UTC 2017-03-20 17: 46: 20
    Программа кодирования : mkvmerge v9.8.0 (\'Kuglblids\') 64bit
    Библиотека кодирования : libebml v1.3.4 + libmatroska v1.4.5
    Видео
    Идентификатор : 1
    Формат : AVC
    Формат/Информация : Advanced Video Codec
    Профиль формата : High@L4
    Настройки формата : CABAC/4 Ref Frames
    Параметр CABAC формата : Да
    Параметр RefFrames формата : 4 кадра
    Идентификатор кодека : V_MPEG4/ISO/AVC
    Продолжительность : 3 м. 36 с.
    Битрейт : 3401 Кбит/сек
    Ширина : 1280 пикселей
    Высота : 904 пикселя
    Соотношение сторон : 1, 416
    Режим частоты кадров : Постоянный
    Частота кадров : 25, 000 кадров/сек
    Цветовое пространство : YUV
    Субдискретизация насыщенности : 4: 2: 0
    Битовая глубина : 8 бит
    Тип развёртки : Прогрессивная
    Бит/(Пиксели*Кадры) : 0.118
    Размер потока : 88, 0 Мбайт (69%)
    Библиотека кодирования : x264 core 146 r2538 121396c
    Настройки программы : cabac=1/ref=3/deblock=1: -1: -1/analyse=0x3: 0x113/me=hex/subme=7/psy=1/psy_rd=1.00: 0.20/mixed_ref=1/me_range=16/chroma_me=1/trellis=1/8x8dct=1/cqm=0/deadzone=21, 11/fast_pskip=1/chroma_qp_offset=-3/threads=12/lookahead_threads=2/sliced_threads=0/nr=0/decimate=0/interlaced=0/bluray_compat=0/constrained_intra=0/bframes=3/b_pyramid=2/b_adapt=1/b_bias=0/direct=3/weightb=1/open_gop=0/weightp=2/keyint=250/keyint_min=25/scenecut=40/intra_refresh=0/rc_lookahead=40/rc=2pass/mbtree=1/bitrate=3401/ratetol=1.0/qcomp=0.60/qpmin=0/qpmax=69/qpstep=4/cplxblur=20.0/qblur=0.5/vbv_maxrate=14000/vbv_bufsize=14000/nal_hrd=none/filler=0/ip_ratio=1.40/aq=1: 1.00
    Default : Да
    Forced : Нет
    Аудио
    Идентификатор : 2
    Формат : PCM
    Идентификатор кодека : A_PCM/INT/LIT
    Продолжительность : 3 м. 36 с.
    Вид битрейта : Постоянный
    Битрейт : 1536 Кбит/сек
    Каналы : 2 канала
    Частота : 48, 0 КГц
    Частота кадров : 32, 002 кадра/сек (1500 SPF)
    Битовая глубина : 16 бит
    Размер потока : 39, 7 Мбайт (31%)
    Default : Да
    Forced : Нет
    Общее
    Уникальный идентификатор : 214682066401862422474764642377413609592 (0xA1824313C8AA52119D8B08F5D6DAC878)
    Полное имя : E: Сборник 90хBest Hits 90 from ALEXnROCK. mkv (Disc 2)63 Savage Garden - I Want You ALEXnROCK.mkv
    Формат : Matroska
    Версия формата : Version 4/Version 2
    Размер файла : 136 Мбайт
    Продолжительность : 3 м. 52 с.
    Общий поток : 4925 Кбит/сек
    Дата кодирования : UTC 2017-03-21 19: 00: 52
    Программа кодирования : mkvmerge v9.8.0 (\'Kuglblids\') 64bit
    Библиотека кодирования : libebml v1.3.4 + libmatroska v1.4.5
    Видео
    Идентификатор : 1
    Формат : AVC
    Формат/Информация : Advanced Video Codec
    Профиль формата : High@L4
    Настройки формата : CABAC/4 Ref Frames
    Параметр CABAC формата : Да
    Параметр RefFrames формата : 4 кадра
    Идентификатор кодека : V_MPEG4/ISO/AVC
    Продолжительность : 3 м. 51 с.
    Битрейт : 3401 Кбит/сек
    Ширина : 1280 пикселей
    Высота : 888 пикселей
    Соотношение сторон : 1, 441
    Режим частоты кадров : Постоянный
    Частота кадров : 29, 970 (30000/1001) кадров/сек
    Цветовое пространство : YUV
    Субдискретизация насыщенности : 4: 2: 0
    Битовая глубина : 8 бит
    Тип развёртки : Прогрессивная
    Бит/(Пиксели*Кадры) : 0.100
    Размер потока : 93, 8 Мбайт (69%)
    Библиотека кодирования : x264 core 146 r2538 121396c
    Настройки программы : cabac=1/ref=3/deblock=1: -1: -1/analyse=0x3: 0x113/me=hex/subme=7/psy=1/psy_rd=1.00: 0.20/mixed_ref=1/me_range=16/chroma_me=1/trellis=1/8x8dct=1/cqm=0/deadzone=21, 11/fast_pskip=1/chroma_qp_offset=-3/threads=12/lookahead_threads=2/sliced_threads=0/nr=0/decimate=0/interlaced=0/bluray_compat=0/constrained_intra=0/bframes=3/b_pyramid=2/b_adapt=1/b_bias=0/direct=3/weightb=1/open_gop=0/weightp=2/keyint=250/keyint_min=25/scenecut=40/intra_refresh=0/rc_lookahead=40/rc=2pass/mbtree=1/bitrate=3401/ratetol=1.0/qcomp=0.60/qpmin=0/qpmax=69/qpstep=4/cplxblur=20.0/qblur=0.5/vbv_maxrate=14000/vbv_bufsize=14000/nal_hrd=none/filler=0/ip_ratio=1.40/aq=1: 1.00
    Default : Да
    Forced : Нет
    Аудио
    Идентификатор : 2
    Формат : PCM
    Идентификатор кодека : A_PCM/INT/LIT
    Продолжительность : 3 м. 52 с.
    Вид битрейта : Постоянный
    Битрейт : 1536 Кбит/сек
    Каналы : 2 канала
    Частота : 48, 0 КГц
    Частота кадров : 32, 001 кадра/сек (1500 SPF)
    Битовая глубина : 16 бит
    Размер потока : 42, 5 Мбайт (31%)
    Default : Да
    Forced : Нет
    Общее
    Уникальный идентификатор : 198712015178348740452892444881933908286 (0x957E8AC2C0090B439B5367594859393E)
    Полное имя : E: Сборник 90хBest Hits 90 from ALEXnROCK. mkv (Disc 2)64 Seal - Kiss From A Rose ALEXnROCK.mkv
    Формат : Matroska
    Версия формата : Version 4/Version 2
    Размер файла : 132 Мбайт
    Продолжительность : 3 м. 44 с.
    Общий поток : 4929 Кбит/сек
    Дата кодирования : UTC 2017-03-22 14: 09: 45
    Программа кодирования : mkvmerge v9.8.0 (\'Kuglblids\') 64bit
    Библиотека кодирования : libebml v1.3.4 + libmatroska v1.4.5
    Видео
    Идентификатор : 1
    Формат : AVC
    Формат/Информация : Advanced Video Codec
    Профиль формата : High@L4
    Настройки формата : CABAC/4 Ref Frames
    Параметр CABAC формата : Да
    Параметр RefFrames формата : 4 кадра
    Идентификатор кодека : V_MPEG4/ISO/AVC
    Продолжительность : 3 м. 44 с.
    Битрейт : 3401 Кбит/сек
    Ширина : 1280 пикселей
    Высота : 672 пикселя
    Соотношение сторон : 1, 905
    Режим частоты кадров : Постоянный
    Частота кадров : 25, 000 кадров/сек
    Цветовое пространство : YUV
    Субдискретизация насыщенности : 4: 2: 0
    Битовая глубина : 8 бит
    Тип развёртки : Прогрессивная
    Бит/(Пиксели*Кадры) : 0.158
    Размер потока : 91, 1 Мбайт (69%)
    Библиотека кодирования : x264 core 146 r2538 121396c
    Настройки программы : cabac=1/ref=3/deblock=1: -1: -1/analyse=0x3: 0x113/me=hex/subme=7/psy=1/psy_rd=1.00: 0.20/mixed_ref=1/me_range=16/chroma_me=1/trellis=1/8x8dct=1/cqm=0/deadzone=21, 11/fast_pskip=1/chroma_qp_offset=-3/threads=12/lookahead_threads=2/sliced_threads=0/nr=0/decimate=0/interlaced=0/bluray_compat=0/constrained_intra=0/bframes=3/b_pyramid=2/b_adapt=1/b_bias=0/direct=3/weightb=1/open_gop=0/weightp=2/keyint=250/keyint_min=25/scenecut=40/intra_refresh=0/rc_lookahead=40/rc=2pass/mbtree=1/bitrate=3401/ratetol=1.0/qcomp=0.60/qpmin=0/qpmax=69/qpstep=4/cplxblur=20.0/qblur=0.5/vbv_maxrate=14000/vbv_bufsize=14000/nal_hrd=none/filler=0/ip_ratio=1.40/aq=1: 1.00
    Default : Да
    Forced : Нет
    Аудио
    Идентификатор : 2
    Формат : PCM
    Идентификатор кодека : A_PCM/INT/LIT
    Продолжительность : 3 м. 43 с.
    Вид битрейта : Постоянный
    Битрейт : 1536 Кбит/сек
    Каналы : 2 канала
    Частота : 48, 0 КГц
    Частота кадров : 32, 003 кадра/сек (1500 SPF)
    Битовая глубина : 16 бит
    Размер потока : 40, 9 Мбайт (31%)
    Default : Да
    Forced : Нет
    Общее
    Уникальный идентификатор : 220441994349106925523177778802591111690 (0xA5D79573601954F6853BB8D0DC759A0A)
    Полное имя : E: Сборник 90хBest Hits 90 from ALEXnROCK. mkv (Disc 2)65 Кар-Мэн - Лондон гуд-бай ALEXnROCK.mkv
    Формат : Matroska
    Версия формата : Version 4/Version 2
    Размер файла : 195 Мбайт
    Продолжительность : 5 м. 30 с.
    Общий поток : 4940 Кбит/сек
    Дата кодирования : UTC 2017-03-03 10: 51: 23
    Программа кодирования : mkvmerge v9.8.0 (\'Kuglblids\') 64bit
    Библиотека кодирования : libebml v1.3.4 + libmatroska v1.4.5
    Видео
    Идентификатор : 1
    Формат : AVC
    Формат/Информация : Advanced Video Codec
    Профиль формата : High@L4
    Настройки формата : CABAC/4 Ref Frames
    Параметр CABAC формата : Да
    Параметр RefFrames формата : 4 кадра
    Идентификатор кодека : V_MPEG4/ISO/AVC
    Продолжительность : 5 м. 30 с.
    Битрейт : 3401 Кбит/сек
    Ширина : 1280 пикселей
    Высота : 888 пикселей
    Соотношение сторон : 1, 441
    Режим частоты кадров : Постоянный
    Частота кадров : 25, 000 кадров/сек
    Цветовое пространство : YUV
    Субдискретизация насыщенности : 4: 2: 0
    Битовая глубина : 8 бит
    Тип развёртки : Прогрессивная
    Бит/(Пиксели*Кадры) : 0.120
    Размер потока : 134 Мбайт (69%)
    Библиотека кодирования : x264 core 146 r2538 121396c
    Настройки программы : cabac=1/ref=3/deblock=1: -1: -1/analyse=0x3: 0x113/me=hex/subme=7/psy=1/psy_rd=1.00: 0.20/mixed_ref=1/me_range=16/chroma_me=1/trellis=1/8x8dct=1/cqm=0/deadzone=21, 11/fast_pskip=1/chroma_qp_offset=-3/threads=12/lookahead_threads=2/sliced_threads=0/nr=0/decimate=0/interlaced=0/bluray_compat=0/constrained_intra=0/bframes=3/b_pyramid=2/b_adapt=1/b_bias=0/direct=3/weightb=1/open_gop=0/weightp=2/keyint=250/keyint_min=25/scenecut=40/intra_refresh=0/rc_lookahead=40/rc=2pass/mbtree=1/bitrate=3401/ratetol=1.0/qcomp=0.60/qpmin=0/qpmax=69/qpstep=4/cplxblur=20.0/qblur=0.5/vbv_maxrate=14000/vbv_bufsize=14000/nal_hrd=none/filler=0/ip_ratio=1.40/aq=1: 1.00
    Default : Да
    Forced : Нет
    Аудио
    Идентификатор : 2
    Формат : PCM
    Идентификатор кодека : A_PCM/INT/LIT
    Продолжительность : 5 м. 30 с.
    Вид битрейта : Постоянный
    Битрейт : 1536 Кбит/сек
    Каналы : 2 канала
    Частота : 48, 0 КГц
    Частота кадров : 32, 000 кадра/сек (1500 SPF)
    Битовая глубина : 16 бит
    Размер потока : 60, 6 Мбайт (31%)
    Default : Да
    Forced : Нет
    Общее
    Уникальный идентификатор : 217198062616198622072502669265315955143 (0xA366D3449A4609709ED05FB2D98A01C7)
    Полное имя : E: Сборник 90хBest Hits 90 from ALEXnROCK. mkv (Disc 2)66 Roxette - Joyride ALEXnROCK.mkv
    Формат : Matroska
    Версия формата : Version 4/Version 2
    Размер файла : 159 Мбайт
    Продолжительность : 4 м. 30 с.
    Общий поток : 4935 Кбит/сек
    Дата кодирования : UTC 2017-03-22 11: 11: 41
    Программа кодирования : mkvmerge v9.8.0 (\'Kuglblids\') 64bit
    Библиотека кодирования : libebml v1.3.4 + libmatroska v1.4.5
    Видео
    Идентификатор : 1
    Формат : AVC
    Формат/Информация : Advanced Video Codec
    Профиль формата : High@L4
    Настройки формата : CABAC/4 Ref Frames
    Параметр CABAC формата : Да
    Параметр RefFrames формата : 4 кадра
    Идентификатор кодека : V_MPEG4/ISO/AVC
    Продолжительность : 4 м. 30 с.
    Битрейт : 3401 Кбит/сек
    Ширина : 1280 пикселей
    Высота : 888 пикселей
    Соотношение сторон : 1, 441
    Режим частоты кадров : Постоянный
    Частота кадров : 25, 000 кадров/сек
    Цветовое пространство : YUV
    Субдискретизация насыщенности : 4: 2: 0
    Битовая глубина : 8 бит
    Тип развёртки : Прогрессивная
    Бит/(Пиксели*Кадры) : 0.120
    Размер потока : 109 Мбайт (69%)
    Библиотека кодирования : x264 core 146 r2538 121396c
    Настройки программы : cabac=1/ref=3/deblock=1: -1: -1/analyse=0x3: 0x113/me=hex/subme=7/psy=1/psy_rd=1.00: 0.20/mixed_ref=1/me_range=16/chroma_me=1/trellis=1/8x8dct=1/cqm=0/deadzone=21, 11/fast_pskip=1/chroma_qp_offset=-3/threads=12/lookahead_threads=2/sliced_threads=0/nr=0/decimate=0/interlaced=0/bluray_compat=0/constrained_intra=0/bframes=3/b_pyramid=2/b_adapt=1/b_bias=0/direct=3/weightb=1/open_gop=0/weightp=2/keyint=250/keyint_min=25/scenecut=40/intra_refresh=0/rc_lookahead=40/rc=2pass/mbtree=1/bitrate=3401/ratetol=1.0/qcomp=0.60/qpmin=0/qpmax=69/qpstep=4/cplxblur=20.0/qblur=0.5/vbv_maxrate=14000/vbv_bufsize=14000/nal_hrd=none/filler=0/ip_ratio=1.40/aq=1: 1.00
    Default : Да
    Forced : Нет
    Аудио
    Идентификатор : 2
    Формат : PCM
    Идентификатор кодека : A_PCM/INT/LIT
    Продолжительность : 4 м. 29 с.
    Вид битрейта : Постоянный
    Битрейт : 1536 Кбит/сек
    Каналы : 2 канала
    Частота : 48, 0 КГц
    Частота кадров : 32, 001 кадра/сек (1500 SPF)
    Битовая глубина : 16 бит
    Размер потока : 49, 4 Мбайт (31%)
    Default : Да
    Forced : Нет
    Общее
    Уникальный идентификатор : 174099236707171774616326020679186612162 (0x82FA4B177944E8CDBCEDF73EB7B97FC2)
    Полное имя : E: Сборник 90хBest Hits 90 from ALEXnROCK. mkv (Disc 2)67 Backstreet Boys - I\'ll Never Break Your Heart ALEXnROCK.mkv
    Формат : Matroska
    Версия формата : Version 4/Version 2
    Размер файла : 166 Мбайт
    Продолжительность : 4 м. 44 с.
    Общий поток : 4897 Кбит/сек
    Дата кодирования : UTC 2017-03-22 15: 01: 56
    Программа кодирования : mkvmerge v9.8.0 (\'Kuglblids\') 64bit
    Библиотека кодирования : libebml v1.3.4 + libmatroska v1.4.5
    Видео
    Идентификатор : 1
    Формат : AVC
    Формат/Информация : Advanced Video Codec
    Профиль формата : High@L4
    Настройки формата : CABAC/4 Ref Frames
    Параметр CABAC формата : Да
    Параметр RefFrames формата : 4 кадра
    Идентификатор кодека : V_MPEG4/ISO/AVC
    Продолжительность : 4 м. 41 с.
    Битрейт : 3401 Кбит/сек
    Ширина : 1280 пикселей
    Высота : 904 пикселя
    Соотношение сторон : 1, 416
    Режим частоты кадров : Постоянный
    Частота кадров : 29, 970 (30000/1001) кадров/сек
    Цветовое пространство : YUV
    Субдискретизация насыщенности : 4: 2: 0
    Битовая глубина : 8 бит
    Тип развёртки : Прогрессивная
    Бит/(Пиксели*Кадры) : 0.098
    Размер потока : 114 Мбайт (69%)
    Библиотека кодирования : x264 core 146 r2538 121396c
    Настройки программы : cabac=1/ref=3/deblock=1: -1: -1/analyse=0x3: 0x113/me=hex/subme=7/psy=1/psy_rd=1.00: 0.20/mixed_ref=1/me_range=16/chroma_me=1/trellis=1/8x8dct=1/cqm=0/deadzone=21, 11/fast_pskip=1/chroma_qp_offset=-3/threads=12/lookahead_threads=2/sliced_threads=0/nr=0/decimate=0/interlaced=0/bluray_compat=0/constrained_intra=0/bframes=3/b_pyramid=2/b_adapt=1/b_bias=0/direct=3/weightb=1/open_gop=0/weightp=2/keyint=250/keyint_min=25/scenecut=40/intra_refresh=0/rc_lookahead=40/rc=2pass/mbtree=1/bitrate=3401/ratetol=1.0/qcomp=0.60/qpmin=0/qpmax=69/qpstep=4/cplxblur=20.0/qblur=0.5/vbv_maxrate=14000/vbv_bufsize=14000/nal_hrd=none/filler=0/ip_ratio=1.40/aq=1: 1.00
    Default : Да
    Forced : Нет
    Аудио
    Идентификатор : 2
    Формат : PCM
    Идентификатор кодека : A_PCM/INT/LIT
    Продолжительность : 4 м. 44 с.
    Вид битрейта : Постоянный
    Битрейт : 1536 Кбит/сек
    Каналы : 2 канала
    Частота : 48, 0 КГц
    Частота кадров : 32, 003 кадра/сек (1500 SPF)
    Битовая глубина : 16 бит
    Размер потока : 52, 1 Мбайт (31%)
    Default : Да
    Forced : Нет
    Общее
    Уникальный идентификатор : 221803132317848204215298653648550522980 (0xA6DDBABBDB99ED37ADDE1EFFCD367064)
    Полное имя : E: Сборник 90хBest Hits 90 from ALEXnROCK. mkv (Disc 2)68 Capella - U got to Let The Music ALEXnROCK.mkv
    Формат : Matroska
    Версия формата : Version 4/Version 2
    Размер файла : 127 Мбайт
    Продолжительность : 3 м. 36 с.
    Общий поток : 4931 Кбит/сек
    Дата кодирования : UTC 2017-03-22 15: 50: 30
    Программа кодирования : mkvmerge v9.8.0 (\'Kuglblids\') 64bit
    Библиотека кодирования : libebml v1.3.4 + libmatroska v1.4.5
    Видео
    Идентификатор : 1
    Формат : AVC
    Формат/Информация : Advanced Video Codec
    Профиль формата : High@L4
    Настройки формата : CABAC/4 Ref Frames
    Параметр CABAC формата : Да
    Параметр RefFrames формата : 4 кадра
    Идентификатор кодека : V_MPEG4/ISO/AVC
    Продолжительность : 3 м. 36 с.
    Битрейт : 3401 Кбит/сек
    Ширина : 1280 пикселей
    Высота : 720 пикселей
    Соотношение сторон : 16: 9
    Режим частоты кадров : Постоянный
    Частота кадров : 25, 000 кадров/сек
    Цветовое пространство : YUV
    Субдискретизация насыщенности : 4: 2: 0
    Битовая глубина : 8 бит
    Тип развёртки : Прогрессивная
    Бит/(Пиксели*Кадры) : 0.148
    Размер потока : 87, 8 Мбайт (69%)
    Библиотека кодирования : x264 core 146 r2538 121396c
    Настройки программы : cabac=1/ref=3/deblock=1: -1: -1/analyse=0x3: 0x113/me=hex/subme=7/psy=1/psy_rd=1.00: 0.20/mixed_ref=1/me_range=16/chroma_me=1/trellis=1/8x8dct=1/cqm=0/deadzone=21, 11/fast_pskip=1/chroma_qp_offset=-3/threads=12/lookahead_threads=2/sliced_threads=0/nr=0/decimate=0/interlaced=0/bluray_compat=0/constrained_intra=0/bframes=3/b_pyramid=2/b_adapt=1/b_bias=0/direct=3/weightb=1/open_gop=0/weightp=2/keyint=250/keyint_min=25/scenecut=40/intra_refresh=0/rc_lookahead=40/rc=2pass/mbtree=1/bitrate=3401/ratetol=1.0/qcomp=0.60/qpmin=0/qpmax=69/qpstep=4/cplxblur=20.0/qblur=0.5/vbv_maxrate=14000/vbv_bufsize=14000/nal_hrd=none/filler=0/ip_ratio=1.40/aq=1: 1.00
    Default : Да
    Forced : Нет
    Аудио
    Идентификатор : 2
    Формат : PCM
    Идентификатор кодека : A_PCM/INT/LIT
    Продолжительность : 3 м. 34 с.
    Вид битрейта : Постоянный
    Битрейт : 1536 Кбит/сек
    Каналы : 2 канала
    Частота : 48, 0 КГц
    Частота кадров : 32, 001 кадра/сек (1500 SPF)
    Битовая глубина : 16 бит
    Размер потока : 39, 4 Мбайт (31%)
    Default : Да
    Forced : Нет
    Общее
    Уникальный идентификатор : 222961204648797253050608152896639127667 (0xA7BCC41BA79912CCAFD5E4888FF4D073)
    Полное имя : E: Сборник 90хBest Hits 90 from ALEXnROCK. mkv (Disc 2)69 No Mercy - Where Do You Go ALEXnROCK.mkv
    Формат : Matroska
    Версия формата : Version 4/Version 2
    Размер файла : 136 Мбайт
    Продолжительность : 3 м. 50 с.
    Общий поток : 4940 Кбит/сек
    Дата кодирования : UTC 2017-03-23 12: 26: 09
    Программа кодирования : mkvmerge v9.8.0 (\'Kuglblids\') 64bit
    Библиотека кодирования : libebml v1.3.4 + libmatroska v1.4.5
    Видео
    Идентификатор : 1
    Формат : AVC
    Формат/Информация : Advanced Video Codec
    Профиль формата : High@L4
    Настройки формата : CABAC/4 Ref Frames
    Параметр CABAC формата : Да
    Параметр RefFrames формата : 4 кадра
    Идентификатор кодека : V_MPEG4/ISO/AVC
    Продолжительность : 3 м. 50 с.
    Битрейт : 3401 Кбит/сек
    Ширина : 1280 пикселей
    Высота : 632 пикселя
    Соотношение сторон : 2, 025
    Режим частоты кадров : Постоянный
    Частота кадров : 25, 000 кадров/сек
    Цветовое пространство : YUV
    Субдискретизация насыщенности : 4: 2: 0
    Битовая глубина : 8 бит
    Тип развёртки : Прогрессивная
    Бит/(Пиксели*Кадры) : 0.168
    Размер потока : 93, 3 Мбайт (69%)
    Библиотека кодирования : x264 core 146 r2538 121396c
    Настройки программы : cabac=1/ref=3/deblock=1: -1: -1/analyse=0x3: 0x113/me=hex/subme=7/psy=1/psy_rd=1.00: 0.20/mixed_ref=1/me_range=16/chroma_me=1/trellis=1/8x8dct=1/cqm=0/deadzone=21, 11/fast_pskip=1/chroma_qp_offset=-3/threads=12/lookahead_threads=2/sliced_threads=0/nr=0/decimate=0/interlaced=0/bluray_compat=0/constrained_intra=0/bframes=3/b_pyramid=2/b_adapt=1/b_bias=0/direct=3/weightb=1/open_gop=0/weightp=2/keyint=250/keyint_min=25/scenecut=40/intra_refresh=0/rc_lookahead=40/rc=2pass/mbtree=1/bitrate=3401/ratetol=1.0/qcomp=0.60/qpmin=0/qpmax=69/qpstep=4/cplxblur=20.0/qblur=0.5/vbv_maxrate=14000/vbv_bufsize=14000/nal_hrd=none/filler=0/ip_ratio=1.40/aq=1: 1.00
    Default : Да
    Forced : Нет
    Аудио
    Идентификатор : 2
    Формат : PCM
    Идентификатор кодека : A_PCM/INT/LIT
    Продолжительность : 3 м. 50 с.
    Вид битрейта : Постоянный
    Битрейт : 1536 Кбит/сек
    Каналы : 2 канала
    Частота : 48, 0 КГц
    Частота кадров : 32, 004 кадра/сек (1500 SPF)
    Битовая глубина : 16 бит
    Размер потока : 42, 1 Мбайт (31%)
    Default : Да
    Forced : Нет
    Общее
    Уникальный идентификатор : 209877748309425080995487755381962085368 (0x9DE4FBE84620683283F72AD203CE93F8)
    Полное имя : E: Сборник 90хBest Hits 90 from ALEXnROCK. mkv (Disc 2)70 Dr. Alban - Let The Beat Go On ALEXnROCK.mkv
    Формат : Matroska
    Версия формата : Version 4/Version 2
    Размер файла : 144 Мбайт
    Продолжительность : 4 м. 5 с.
    Общий поток : 4929 Кбит/сек
    Дата кодирования : UTC 2017-03-22 17: 46: 24
    Программа кодирования : mkvmerge v9.8.0 (\'Kuglblids\') 64bit
    Библиотека кодирования : libebml v1.3.4 + libmatroska v1.4.5
    Видео
    Идентификатор : 1
    Формат : AVC
    Формат/Информация : Advanced Video Codec
    Профиль формата : High@L4
    Настройки формата : CABAC/4 Ref Frames
    Параметр CABAC формата : Да
    Параметр RefFrames формата : 4 кадра
    Идентификатор кодека : V_MPEG4/ISO/AVC
    Продолжительность : 4 м. 5 с.
    Битрейт : 3401 Кбит/сек
    Ширина : 1280 пикселей
    Высота : 720 пикселей
    Соотношение сторон : 16: 9
    Режим частоты кадров : Постоянный
    Частота кадров : 29, 970 (30000/1001) кадров/сек
    Цветовое пространство : YUV
    Субдискретизация насыщенности : 4: 2: 0
    Битовая глубина : 8 бит
    Тип развёртки : Прогрессивная
    Бит/(Пиксели*Кадры) : 0.123
    Размер потока : 99, 4 Мбайт (69%)
    Библиотека кодирования : x264 core 146 r2538 121396c
    Настройки программы : cabac=1/ref=3/deblock=1: -1: -1/analyse=0x3: 0x113/me=hex/subme=7/psy=1/psy_rd=1.00: 0.20/mixed_ref=1/me_range=16/chroma_me=1/trellis=1/8x8dct=1/cqm=0/deadzone=21, 11/fast_pskip=1/chroma_qp_offset=-3/threads=12/lookahead_threads=2/sliced_threads=0/nr=0/decimate=0/interlaced=0/bluray_compat=0/constrained_intra=0/bframes=3/b_pyramid=2/b_adapt=1/b_bias=0/direct=3/weightb=1/open_gop=0/weightp=2/keyint=250/keyint_min=25/scenecut=40/intra_refresh=0/rc_lookahead=40/rc=2pass/mbtree=1/bitrate=3401/ratetol=1.0/qcomp=0.60/qpmin=0/qpmax=69/qpstep=4/cplxblur=20.0/qblur=0.5/vbv_maxrate=14000/vbv_bufsize=14000/nal_hrd=none/filler=0/ip_ratio=1.40/aq=1: 1.00
    Default : Да
    Forced : Нет
    Аудио
    Идентификатор : 2
    Формат : PCM
    Идентификатор кодека : A_PCM/INT/LIT
    Продолжительность : 4 м. 3 с.
    Вид битрейта : Постоянный
    Битрейт : 1536 Кбит/сек
    Каналы : 2 канала
    Частота : 48, 0 КГц
    Частота кадров : 32, 003 кадра/сек (1500 SPF)
    Битовая глубина : 16 бит
    Размер потока : 44, 6 Мбайт (31%)
    Default : Да
    Forced : Нет
    Общее
    Уникальный идентификатор : 230772789309184777184866507916247112397 (0xAD9D38F798DE42A38D60FCDBE2791ACD)
    Полное имя : E: Сборник 90хBest Hits 90 from ALEXnROCK. mkv (Disc 2)71 Eros Ramazzotti - Cose Della Vita ALEXnROCK.mkv
    Формат : Matroska
    Версия формата : Version 4/Version 2
    Размер файла : 144 Мбайт
    Продолжительность : 4 м. 4 с.
    Общий поток : 4937 Кбит/сек
    Дата кодирования : UTC 2017-05-23 13: 01: 55
    Программа кодирования : mkvmerge v9.8.0 (\'Kuglblids\') 64bit
    Библиотека кодирования : libebml v1.3.4 + libmatroska v1.4.5
    Видео
    Идентификатор : 1
    Формат : AVC
    Формат/Информация : Advanced Video Codec
    Профиль формата : High@L4
    Настройки формата : CABAC/4 Ref Frames
    Параметр CABAC формата : Да
    Параметр RefFrames формата : 4 кадра
    Идентификатор кодека : V_MPEG4/ISO/AVC
    Продолжительность : 4 м. 4 с.
    Битрейт : 3401 Кбит/сек
    Ширина : 1280 пикселей
    Высота : 904 пикселя
    Соотношение сторон : 1, 416
    Режим частоты кадров : Постоянный
    Частота кадров : 25, 000 кадров/сек
    Цветовое пространство : YUV
    Субдискретизация насыщенности : 4: 2: 0
    Битовая глубина : 8 бит
    Тип развёртки : Прогрессивная
    Бит/(Пиксели*Кадры) : 0.118
    Размер потока : 99, 3 Мбайт (69%)
    Библиотека кодирования : x264 core 146 r2538 121396c
    Настройки программы : cabac=1/ref=3/deblock=1: -1: -1/analyse=0x3: 0x113/me=hex/subme=7/psy=1/psy_rd=1.00: 0.20/mixed_ref=1/me_range=16/chroma_me=1/trellis=1/8x8dct=1/cqm=0/deadzone=21, 11/fast_pskip=1/chroma_qp_offset=-3/threads=12/lookahead_threads=2/sliced_threads=0/nr=0/decimate=0/interlaced=0/bluray_compat=0/constrained_intra=0/bframes=3/b_pyramid=2/b_adapt=1/b_bias=0/direct=3/weightb=1/open_gop=0/weightp=2/keyint=250/keyint_min=25/scenecut=40/intra_refresh=0/rc_lookahead=40/rc=2pass/mbtree=1/bitrate=3401/ratetol=1.0/qcomp=0.60/qpmin=0/qpmax=69/qpstep=4/cplxblur=20.0/qblur=0.5/vbv_maxrate=14000/vbv_bufsize=14000/nal_hrd=none/filler=0/ip_ratio=1.40/aq=1: 1.00
    Default : Да
    Forced : Нет
    Аудио
    Идентификатор : 2
    Формат : PCM
    Идентификатор кодека : A_PCM/INT/LIT
    Продолжительность : 4 м. 4 с.
    Вид битрейта : Постоянный
    Битрейт : 1536 Кбит/сек
    Каналы : 2 канала
    Частота : 48, 0 КГц
    Частота кадров : 32, 000 кадра/сек (1500 SPF)
    Битовая глубина : 16 бит
    Размер потока : 44, 7 Мбайт (31%)
    Default : Да
    Forced : Нет
    Общее
    Уникальный идентификатор : 180645292940165841289373195398260007868 (0x87E7049500CB819D8EFE8684C19D23BC)
    Полное имя : E: Сборник 90хBest Hits 90 from ALEXnROCK. mkv (Disc 2)72 Леонид Агутин - Парень чернокожий ALEXnROCK.mkv
    Формат : Matroska
    Версия формата : Version 4/Version 2
    Размер файла : 127 Мбайт
    Продолжительность : 3 м. 35 с.
    Общий поток : 4931 Кбит/сек
    Дата кодирования : UTC 2017-03-24 14: 37: 18
    Программа кодирования : mkvmerge v9.8.0 (\'Kuglblids\') 64bit
    Библиотека кодирования : libebml v1.3.4 + libmatroska v1.4.5
    Видео
    Идентификатор : 1
    Формат : AVC
    Формат/Информация : Advanced Video Codec
    Профиль формата : High@L4
    Настройки формата : CABAC/4 Ref Frames
    Параметр CABAC формата : Да
    Параметр RefFrames формата : 4 кадра
    Идентификатор кодека : V_MPEG4/ISO/AVC
    Продолжительность : 3 м. 34 с.
    Битрейт : 3401 Кбит/сек
    Ширина : 1280 пикселей
    Высота : 896 пикселей
    Соотношение сторон : 1, 429
    Режим частоты кадров : Постоянный
    Частота кадров : 29, 970 (30000/1001) кадров/сек
    Цветовое пространство : YUV
    Субдискретизация насыщенности : 4: 2: 0
    Битовая глубина : 8 бит
    Тип развёртки : Прогрессивная
    Бит/(Пиксели*Кадры) : 0.099
    Размер потока : 87, 2 Мбайт (69%)
    Библиотека кодирования : x264 core 146 r2538 121396c
    Настройки программы : cabac=1/ref=3/deblock=1: -1: -1/analyse=0x3: 0x113/me=hex/subme=7/psy=1/psy_rd=1.00: 0.20/mixed_ref=1/me_range=16/chroma_me=1/trellis=1/8x8dct=1/cqm=0/deadzone=21, 11/fast_pskip=1/chroma_qp_offset=-3/threads=12/lookahead_threads=2/sliced_threads=0/nr=0/decimate=0/interlaced=0/bluray_compat=0/constrained_intra=0/bframes=3/b_pyramid=2/b_adapt=1/b_bias=0/direct=3/weightb=1/open_gop=0/weightp=2/keyint=250/keyint_min=25/scenecut=40/intra_refresh=0/rc_lookahead=40/rc=2pass/mbtree=1/bitrate=3401/ratetol=1.0/qcomp=0.60/qpmin=0/qpmax=69/qpstep=4/cplxblur=20.0/qblur=0.5/vbv_maxrate=14000/vbv_bufsize=14000/nal_hrd=none/filler=0/ip_ratio=1.40/aq=1: 1.00
    Default : Да
    Forced : Нет
    Аудио
    Идентификатор : 2
    Формат : PCM
    Идентификатор кодека : A_PCM/INT/LIT
    Продолжительность : 3 м. 35 с.
    Вид битрейта : Постоянный
    Битрейт : 1536 Кбит/сек
    Каналы : 2 канала
    Частота : 48, 0 КГц
    Частота кадров : 32, 002 кадра/сек (1500 SPF)
    Битовая глубина : 16 бит
    Размер потока : 39, 5 Мбайт (31%)
    Default : Да
    Forced : Нет
    Общее
    Уникальный идентификатор : 228163113512790419983365271146138016429 (0xABA69E04384BF730B5473002471D9AAD)
    Полное имя : E: Сборник 90хBest Hits 90 from ALEXnROCK. mkv (Disc 2)73 Lighthouse Family - High ALEXnROCK.mkv
    Формат : Matroska
    Версия формата : Version 2
    Размер файла : 163 Мбайт
    Продолжительность : 4 м. 37 с.
    Общий поток : 4939 Кбит/сек
    Дата кодирования : UTC 2017-03-21 15: 45: 22
    Программа кодирования : mkvmerge v7.8.0 (\'River Man\') 32bit built on Apr 3 2015 12: 11: 22
    Библиотека кодирования : libebml v1.3.1 + libmatroska v1.4.2
    Видео
    Идентификатор : 1
    Формат : AVC
    Формат/Информация : Advanced Video Codec
    Профиль формата : High@L4
    Настройки формата : CABAC/4 Ref Frames
    Параметр CABAC формата : Да
    Параметр RefFrames формата : 4 кадра
    Идентификатор кодека : V_MPEG4/ISO/AVC
    Продолжительность : 4 м. 37 с.
    Номинальный битрейт : 3401 Кбит/сек
    Ширина : 1280 пикселей
    Высота : 704 пикселя
    Соотношение сторон : 16: 9
    Режим частоты кадров : Постоянный
    Частота кадров : 29, 970 (30000/1001) кадров/сек
    Цветовое пространство : YUV
    Субдискретизация насыщенности : 4: 2: 0
    Битовая глубина : 8 бит
    Тип развёртки : Прогрессивная
    Бит/(Пиксели*Кадры) : 0.126
    Библиотека кодирования : x264 core 146 r2538 121396c
    Настройки программы : cabac=1/ref=3/deblock=1: -1: -1/analyse=0x3: 0x113/me=hex/subme=7/psy=1/psy_rd=1.00: 0.20/mixed_ref=1/me_range=16/chroma_me=1/trellis=1/8x8dct=1/cqm=0/deadzone=21, 11/fast_pskip=1/chroma_qp_offset=-3/threads=12/lookahead_threads=2/sliced_threads=0/nr=0/decimate=0/interlaced=0/bluray_compat=0/constrained_intra=0/bframes=3/b_pyramid=2/b_adapt=1/b_bias=0/direct=3/weightb=1/open_gop=0/weightp=2/keyint=250/keyint_min=25/scenecut=40/intra_refresh=0/rc_lookahead=40/rc=2pass/mbtree=1/bitrate=3401/ratetol=1.0/qcomp=0.60/qpmin=0/qpmax=69/qpstep=4/cplxblur=20.0/qblur=0.5/vbv_maxrate=14000/vbv_bufsize=14000/nal_hrd=none/filler=0/ip_ratio=1.40/aq=1: 1.00
    Default : Да
    Forced : Нет
    Аудио
    Идентификатор : 2
    Формат : PCM
    Идентификатор кодека : A_PCM/INT/LIT
    Продолжительность : 4 м. 37 с.
    Вид битрейта : Постоянный
    Каналы : 2 канала
    Частота : 48, 0 КГц
    Битовая глубина : 16 бит
    Default : Да
    Forced : Нет
    Общее
    Уникальный идентификатор : 172553898112801744279534140024412814612 (0x81D0AC043C2012AB9D602F98DF6DBD14)
    Полное имя : E: Сборник 90хBest Hits 90 from ALEXnROCK. mkv (Disc 2)74 Haddaway - Fly away ALEXnROCK.mkv
    Формат : Matroska
    Версия формата : Version 4/Version 2
    Размер файла : 145 Мбайт
    Продолжительность : 4 м. 6 с.
    Общий поток : 4928 Кбит/сек
    Дата кодирования : UTC 2017-03-23 12: 58: 41
    Программа кодирования : mkvmerge v9.8.0 (\'Kuglblids\') 64bit
    Библиотека кодирования : libebml v1.3.4 + libmatroska v1.4.5
    Видео
    Идентификатор : 1
    Формат : AVC
    Формат/Информация : Advanced Video Codec
    Профиль формата : High@L4
    Настройки формата : CABAC/4 Ref Frames
    Параметр CABAC формата : Да
    Параметр RefFrames формата : 4 кадра
    Идентификатор кодека : V_MPEG4/ISO/AVC
    Продолжительность : 4 м. 6 с.
    Битрейт : 3401 Кбит/сек
    Ширина : 1280 пикселей
    Высота : 720 пикселей
    Соотношение сторон : 16: 9
    Режим частоты кадров : Постоянный
    Частота кадров : 25, 000 кадров/сек
    Цветовое пространство : YUV
    Субдискретизация насыщенности : 4: 2: 0
    Битовая глубина : 8 бит
    Тип развёртки : Прогрессивная
    Бит/(Пиксели*Кадры) : 0.148
    Размер потока : 100 Мбайт (69%)
    Библиотека кодирования : x264 core 146 r2538 121396c
    Настройки программы : cabac=1/ref=3/deblock=1: -1: -1/analyse=0x3: 0x113/me=hex/subme=7/psy=1/psy_rd=1.00: 0.20/mixed_ref=1/me_range=16/chroma_me=1/trellis=1/8x8dct=1/cqm=0/deadzone=21, 11/fast_pskip=1/chroma_qp_offset=-3/threads=12/lookahead_threads=2/sliced_threads=0/nr=0/decimate=0/interlaced=0/bluray_compat=0/constrained_intra=0/bframes=3/b_pyramid=2/b_adapt=1/b_bias=0/direct=3/weightb=1/open_gop=0/weightp=2/keyint=250/keyint_min=25/scenecut=40/intra_refresh=0/rc_lookahead=40/rc=2pass/mbtree=1/bitrate=3401/ratetol=1.0/qcomp=0.60/qpmin=0/qpmax=69/qpstep=4/cplxblur=20.0/qblur=0.5/vbv_maxrate=14000/vbv_bufsize=14000/nal_hrd=none/filler=0/ip_ratio=1.40/aq=1: 1.00
    Default : Да
    Forced : Нет
    Аудио
    Идентификатор : 2
    Формат : PCM
    Идентификатор кодека : A_PCM/INT/LIT
    Продолжительность : 4 м. 4 с.
    Вид битрейта : Постоянный
    Битрейт : 1536 Кбит/сек
    Каналы : 2 канала
    Частота : 48, 0 КГц
    Частота кадров : 32, 003 кадра/сек (1500 SPF)
    Битовая глубина : 16 бит
    Размер потока : 44, 8 Мбайт (31%)
    Default : Да
    Forced : Нет
    Общее
    Уникальный идентификатор : 222296038606822665732521259718386990621 (0xA73CA8E3E0F70FB698C0CB0B53BD3E1D)
    Полное имя : E: Сборник 90хBest Hits 90 from ALEXnROCK. mkv (Disc 2)75 Health Hunter - Revolution In Paradise ALEXnROCK.mkv
    Формат : Matroska
    Версия формата : Version 4/Version 2
    Размер файла : 123 Мбайт
    Продолжительность : 3 м. 29 с.
    Общий поток : 4926 Кбит/сек
    Дата кодирования : UTC 2017-03-23 13: 39: 13
    Программа кодирования : mkvmerge v9.8.0 (\'Kuglblids\') 64bit
    Библиотека кодирования : libebml v1.3.4 + libmatroska v1.4.5
    Видео
    Идентификатор : 1
    Формат : AVC
    Формат/Информация : Advanced Video Codec
    Профиль формата : High@L4
    Настройки формата : CABAC/4 Ref Frames
    Параметр CABAC формата : Да
    Параметр RefFrames формата : 4 кадра
    Идентификатор кодека : V_MPEG4/ISO/AVC
    Продолжительность : 3 м. 29 с.
    Битрейт : 3401 Кбит/сек
    Ширина : 1280 пикселей
    Высота : 720 пикселей
    Соотношение сторон : 16: 9
    Режим частоты кадров : Постоянный
    Частота кадров : 25, 000 кадров/сек
    Цветовое пространство : YUV
    Субдискретизация насыщенности : 4: 2: 0
    Битовая глубина : 8 бит
    Тип развёртки : Прогрессивная
    Бит/(Пиксели*Кадры) : 0.148
    Размер потока : 84, 9 Мбайт (69%)
    Библиотека кодирования : x264 core 146 r2538 121396c
    Настройки программы : cabac=1/ref=3/deblock=1: -1: -1/analyse=0x3: 0x113/me=hex/subme=7/psy=1/psy_rd=1.00: 0.20/mixed_ref=1/me_range=16/chroma_me=1/trellis=1/8x8dct=1/cqm=0/deadzone=21, 11/fast_pskip=1/chroma_qp_offset=-3/threads=12/lookahead_threads=2/sliced_threads=0/nr=0/decimate=0/interlaced=0/bluray_compat=0/constrained_intra=0/bframes=3/b_pyramid=2/b_adapt=1/b_bias=0/direct=3/weightb=1/open_gop=0/weightp=2/keyint=250/keyint_min=25/scenecut=40/intra_refresh=0/rc_lookahead=40/rc=2pass/mbtree=1/bitrate=3401/ratetol=1.0/qcomp=0.60/qpmin=0/qpmax=69/qpstep=4/cplxblur=20.0/qblur=0.5/vbv_maxrate=14000/vbv_bufsize=14000/nal_hrd=none/filler=0/ip_ratio=1.40/aq=1: 1.00
    Default : Да
    Forced : Нет
    Аудио
    Идентификатор : 2
    Формат : PCM
    Идентификатор кодека : A_PCM/INT/LIT
    Продолжительность : 3 м. 28 с.
    Вид битрейта : Постоянный
    Битрейт : 1536 Кбит/сек
    Каналы : 2 канала
    Частота : 48, 0 КГц
    Частота кадров : 32, 004 кадра/сек (1500 SPF)
    Битовая глубина : 16 бит
    Размер потока : 38, 2 Мбайт (31%)
    Default : Да
    Forced : Нет
    Общее
    Уникальный идентификатор : 232612644173581867184795437829474123956 (0xAEFF90D0C72AE9B2B3BED8E7477680B4)
    Полное имя : E: Сборник 90хBest Hits 90 from ALEXnROCK. mkv (Disc 2)76 C-Block - So Strumg Out ALEXnROCK.mkv
    Формат : Matroska
    Версия формата : Version 4/Version 2
    Размер файла : 131 Мбайт
    Продолжительность : 3 м. 41 с.
    Общий поток : 4938 Кбит/сек
    Дата кодирования : UTC 2017-03-23 13: 25: 24
    Программа кодирования : mkvmerge v9.8.0 (\'Kuglblids\') 64bit
    Библиотека кодирования : libebml v1.3.4 + libmatroska v1.4.5
    Видео
    Идентификатор : 1
    Формат : AVC
    Формат/Информация : Advanced Video Codec
    Профиль формата : High@L4
    Настройки формата : CABAC/4 Ref Frames
    Параметр CABAC формата : Да
    Параметр RefFrames формата : 4 кадра
    Идентификатор кодека : V_MPEG4/ISO/AVC
    Продолжительность : 3 м. 41 с.
    Битрейт : 3401 Кбит/сек
    Ширина : 1280 пикселей
    Высота : 896 пикселей
    Соотношение сторон : 1, 429
    Режим частоты кадров : Постоянный
    Частота кадров : 25, 000 кадров/сек
    Цветовое пространство : YUV
    Субдискретизация насыщенности : 4: 2: 0
    Битовая глубина : 8 бит
    Тип развёртки : Прогрессивная
    Бит/(Пиксели*Кадры) : 0.119
    Размер потока : 90, 1 Мбайт (69%)
    Библиотека кодирования : x264 core 146 r2538 121396c
    Настройки программы : cabac=1/ref=3/deblock=1: -1: -1/analyse=0x3: 0x113/me=hex/subme=7/psy=1/psy_rd=1.00: 0.20/mixed_ref=1/me_range=16/chroma_me=1/trellis=1/8x8dct=1/cqm=0/deadzone=21, 11/fast_pskip=1/chroma_qp_offset=-3/threads=12/lookahead_threads=2/sliced_threads=0/nr=0/decimate=0/interlaced=0/bluray_compat=0/constrained_intra=0/bframes=3/b_pyramid=2/b_adapt=1/b_bias=0/direct=3/weightb=1/open_gop=0/weightp=2/keyint=250/keyint_min=25/scenecut=40/intra_refresh=0/rc_lookahead=40/rc=2pass/mbtree=1/bitrate=3401/ratetol=1.0/qcomp=0.60/qpmin=0/qpmax=69/qpstep=4/cplxblur=20.0/qblur=0.5/vbv_maxrate=14000/vbv_bufsize=14000/nal_hrd=none/filler=0/ip_ratio=1.40/aq=1: 1.00
    Default : Да
    Forced : Нет
    Аудио
    Идентификатор : 2
    Формат : PCM
    Идентификатор кодека : A_PCM/INT/LIT
    Продолжительность : 3 м. 41 с.
    Вид битрейта : Постоянный
    Битрейт : 1536 Кбит/сек
    Каналы : 2 канала
    Частота : 48, 0 КГц
    Частота кадров : 32, 003 кадра/сек (1500 SPF)
    Битовая глубина : 16 бит
    Размер потока : 40, 5 Мбайт (31%)
    Default : Да
    Forced : Нет
    Общее
    Уникальный идентификатор : 234791520630846834420325099469366121234 (0xB0A333B80C90B82492CE9D21978C5312)
    Полное имя : E: Сборник 90хBest Hits 90 from ALEXnROCK. mkv (Disc 2)77 Roxette - The Big Love ALEXnROCK.mkv
    Формат : Matroska
    Версия формата : Version 4/Version 2
    Размер файла : 157 Мбайт
    Продолжительность : 4 м. 27 с.
    Общий поток : 4931 Кбит/сек
    Дата кодирования : UTC 2017-03-26 14: 45: 29
    Программа кодирования : mkvmerge v9.8.0 (\'Kuglblids\') 64bit
    Библиотека кодирования : libebml v1.3.4 + libmatroska v1.4.5
    Видео
    Идентификатор : 1
    Формат : AVC
    Формат/Информация : Advanced Video Codec
    Профиль формата : High@L4
    Настройки формата : CABAC/4 Ref Frames
    Параметр CABAC формата : Да
    Параметр RefFrames формата : 4 кадра
    Идентификатор кодека : V_MPEG4/ISO/AVC
    Продолжительность : 4 м. 27 с.
    Битрейт : 3401 Кбит/сек
    Ширина : 1280 пикселей
    Высота : 896 пикселей
    Соотношение сторон : 1, 429
    Режим частоты кадров : Постоянный
    Частота кадров : 25, 000 кадров/сек
    Цветовое пространство : YUV
    Субдискретизация насыщенности : 4: 2: 0
    Битовая глубина : 8 бит
    Тип развёртки : Прогрессивная
    Бит/(Пиксели*Кадры) : 0.119
    Размер потока : 109 Мбайт (69%)
    Библиотека кодирования : x264 core 146 r2538 121396c
    Настройки программы : cabac=1/ref=3/deblock=1: -1: -1/analyse=0x3: 0x113/me=hex/subme=7/psy=1/psy_rd=1.00: 0.20/mixed_ref=1/me_range=16/chroma_me=1/trellis=1/8x8dct=1/cqm=0/deadzone=21, 11/fast_pskip=1/chroma_qp_offset=-3/threads=12/lookahead_threads=2/sliced_threads=0/nr=0/decimate=0/interlaced=0/bluray_compat=0/constrained_intra=0/bframes=3/b_pyramid=2/b_adapt=1/b_bias=0/direct=3/weightb=1/open_gop=0/weightp=2/keyint=250/keyint_min=25/scenecut=40/intra_refresh=0/rc_lookahead=40/rc=2pass/mbtree=1/bitrate=3401/ratetol=1.0/qcomp=0.60/qpmin=0/qpmax=69/qpstep=4/cplxblur=20.0/qblur=0.5/vbv_maxrate=14000/vbv_bufsize=14000/nal_hrd=none/filler=0/ip_ratio=1.40/aq=1: 1.00
    Default : Да
    Forced : Нет
    Аудио
    Идентификатор : 2
    Формат : PCM
    Идентификатор кодека : A_PCM/INT/LIT
    Продолжительность : 4 м. 23 с.
    Вид битрейта : Постоянный
    Битрейт : 1536 Кбит/сек
    Каналы : 2 канала
    Частота : 48, 0 КГц
    Частота кадров : 32, 003 кадра/сек (1500 SPF)
    Битовая глубина : 16 бит
    Размер потока : 48, 3 Мбайт (31%)
    Default : Да
    Forced : Нет
    Общее
    Уникальный идентификатор : 181880514753645491996618765202720735797 (0x88D4E9B82B847729A8E70807367AC235)
    Полное имя : E: Сборник 90хBest Hits 90 from ALEXnROCK. mkv (Disc 2)78 Дмитрий Маликов - Спой мне ALEXnROCK.mkv
    Формат : Matroska
    Версия формата : Version 2
    Размер файла : 137 Мбайт
    Продолжительность : 3 м. 53 с.
    Общий поток : 4937 Кбит/сек
    Дата кодирования : UTC 2017-03-21 21: 28: 36
    Программа кодирования : mkvmerge v7.8.0 (\'River Man\') 32bit built on Apr 3 2015 12: 11: 22
    Библиотека кодирования : libebml v1.3.1 + libmatroska v1.4.2
    Видео
    Идентификатор : 1
    Формат : AVC
    Формат/Информация : Advanced Video Codec
    Профиль формата : High@L4
    Настройки формата : CABAC/4 Ref Frames
    Параметр CABAC формата : Да
    Параметр RefFrames формата : 4 кадра
    Идентификатор кодека : V_MPEG4/ISO/AVC
    Продолжительность : 3 м. 53 с.
    Номинальный битрейт : 3401 Кбит/сек
    Ширина : 1280 пикселей
    Высота : 904 пикселя
    Соотношение сторон : 1, 416
    Режим частоты кадров : Постоянный
    Частота кадров : 25, 000 кадров/сек
    Цветовое пространство : YUV
    Субдискретизация насыщенности : 4: 2: 0
    Битовая глубина : 8 бит
    Тип развёртки : Прогрессивная
    Бит/(Пиксели*Кадры) : 0.118
    Библиотека кодирования : x264 core 146 r2538 121396c
    Настройки программы : cabac=1/ref=3/deblock=1: -1: -1/analyse=0x3: 0x113/me=hex/subme=7/psy=1/psy_rd=1.00: 0.20/mixed_ref=1/me_range=16/chroma_me=1/trellis=1/8x8dct=1/cqm=0/deadzone=21, 11/fast_pskip=1/chroma_qp_offset=-3/threads=12/lookahead_threads=2/sliced_threads=0/nr=0/decimate=0/interlaced=0/bluray_compat=0/constrained_intra=0/bframes=3/b_pyramid=2/b_adapt=1/b_bias=0/direct=3/weightb=1/open_gop=0/weightp=2/keyint=250/keyint_min=25/scenecut=40/intra_refresh=0/rc_lookahead=40/rc=2pass/mbtree=1/bitrate=3401/ratetol=1.0/qcomp=0.60/qpmin=0/qpmax=69/qpstep=4/cplxblur=20.0/qblur=0.5/vbv_maxrate=14000/vbv_bufsize=14000/nal_hrd=none/filler=0/ip_ratio=1.40/aq=1: 1.00
    Default : Да
    Forced : Нет
    Аудио
    Идентификатор : 2
    Формат : PCM
    Идентификатор кодека : A_PCM/INT/LIT
    Продолжительность : 3 м. 53 с.
    Вид битрейта : Постоянный
    Каналы : 2 канала
    Частота : 48, 0 КГц
    Битовая глубина : 16 бит
    Default : Да
    Forced : Нет
    Общее
    Уникальный идентификатор : 187917118044295229133356298785935909960 (0x8D5F853D8D17BCD399FB56F9ACB0E448)
    Полное имя : E: Сборник 90хBest Hits 90 from ALEXnROCK. mkv (Disc 2)79 Tarkan - Bu Gece ALEXnROCK.mkv
    Формат : Matroska
    Версия формата : Version 4/Version 2
    Размер файла : 136 Мбайт
    Продолжительность : 3 м. 51 с.
    Общий поток : 4930 Кбит/сек
    Дата кодирования : UTC 2017-03-23 22: 01: 33
    Программа кодирования : mkvmerge v9.8.0 (\'Kuglblids\') 64bit
    Библиотека кодирования : libebml v1.3.4 + libmatroska v1.4.5
    Видео
    Идентификатор : 1
    Формат : AVC
    Формат/Информация : Advanced Video Codec
    Профиль формата : High@L4
    Настройки формата : CABAC/4 Ref Frames
    Параметр CABAC формата : Да
    Параметр RefFrames формата : 4 кадра
    Идентификатор кодека : V_MPEG4/ISO/AVC
    Продолжительность : 3 м. 50 с.
    Битрейт : 3401 Кбит/сек
    Ширина : 1280 пикселей
    Высота : 880 пикселей
    Соотношение сторон : 3: 2
    Режим частоты кадров : Постоянный
    Частота кадров : 25, 000 кадров/сек
    Цветовое пространство : YUV
    Субдискретизация насыщенности : 4: 2: 0
    Битовая глубина : 8 бит
    Тип развёртки : Прогрессивная
    Бит/(Пиксели*Кадры) : 0.121
    Размер потока : 93, 6 Мбайт (69%)
    Библиотека кодирования : x264 core 146 r2538 121396c
    Настройки программы : cabac=1/ref=3/deblock=1: -1: -1/analyse=0x3: 0x113/me=hex/subme=7/psy=1/psy_rd=1.00: 0.20/mixed_ref=1/me_range=16/chroma_me=1/trellis=1/8x8dct=1/cqm=0/deadzone=21, 11/fast_pskip=1/chroma_qp_offset=-3/threads=12/lookahead_threads=2/sliced_threads=0/nr=0/decimate=0/interlaced=0/bluray_compat=0/constrained_intra=0/bframes=3/b_pyramid=2/b_adapt=1/b_bias=0/direct=3/weightb=1/open_gop=0/weightp=2/keyint=250/keyint_min=25/scenecut=40/intra_refresh=0/rc_lookahead=40/rc=2pass/mbtree=1/bitrate=3401/ratetol=1.0/qcomp=0.60/qpmin=0/qpmax=69/qpstep=4/cplxblur=20.0/qblur=0.5/vbv_maxrate=14000/vbv_bufsize=14000/nal_hrd=none/filler=0/ip_ratio=1.40/aq=1: 1.00
    Default : Да
    Forced : Нет
    Аудио
    Идентификатор : 2
    Формат : PCM
    Идентификатор кодека : A_PCM/INT/LIT
    Продолжительность : 3 м. 51 с.
    Вид битрейта : Постоянный
    Битрейт : 1536 Кбит/сек
    Каналы : 2 канала
    Частота : 48, 0 КГц
    Частота кадров : 32, 002 кадра/сек (1500 SPF)
    Битовая глубина : 16 бит
    Размер потока : 42, 4 Мбайт (31%)
    Default : Да
    Forced : Нет
    Общее
    Уникальный идентификатор : 182345786859369859839482367911910085749 (0x892E8567C30D62979AEF82C10D0E9475)
    Полное имя : E: Сборник 90хBest Hits 90 from ALEXnROCK. mkv (Disc 2)80 Scatman John - Scatman ALEXnROCK.mkv
    Формат : Matroska
    Версия формата : Version 4/Version 2
    Размер файла : 124 Мбайт
    Продолжительность : 3 м. 31 с.
    Общий поток : 4924 Кбит/сек
    Дата кодирования : UTC 2017-03-23 22: 22: 21
    Программа кодирования : mkvmerge v9.8.0 (\'Kuglblids\') 64bit
    Библиотека кодирования : libebml v1.3.4 + libmatroska v1.4.5
    Видео
    Идентификатор : 1
    Формат : AVC
    Формат/Информация : Advanced Video Codec
    Профиль формата : High@L4
    Настройки формата : CABAC/4 Ref Frames
    Параметр CABAC формата : Да
    Параметр RefFrames формата : 4 кадра
    Идентификатор кодека : V_MPEG4/ISO/AVC
    Продолжительность : 3 м. 31 с.
    Битрейт : 3401 Кбит/сек
    Ширина : 1280 пикселей
    Высота : 880 пикселей
    Соотношение сторон : 3: 2
    Режим частоты кадров : Постоянный
    Частота кадров : 25, 000 кадров/сек
    Цветовое пространство : YUV
    Субдискретизация насыщенности : 4: 2: 0
    Битовая глубина : 8 бит
    Тип развёртки : Прогрессивная
    Бит/(Пиксели*Кадры) : 0.121
    Размер потока : 85, 8 Мбайт (69%)
    Библиотека кодирования : x264 core 146 r2538 121396c
    Настройки программы : cabac=1/ref=3/deblock=1: -1: -1/analyse=0x3: 0x113/me=hex/subme=7/psy=1/psy_rd=1.00: 0.20/mixed_ref=1/me_range=16/chroma_me=1/trellis=1/8x8dct=1/cqm=0/deadzone=21, 11/fast_pskip=1/chroma_qp_offset=-3/threads=12/lookahead_threads=2/sliced_threads=0/nr=0/decimate=0/interlaced=0/bluray_compat=0/constrained_intra=0/bframes=3/b_pyramid=2/b_adapt=1/b_bias=0/direct=3/weightb=1/open_gop=0/weightp=2/keyint=250/keyint_min=25/scenecut=40/intra_refresh=0/rc_lookahead=40/rc=2pass/mbtree=1/bitrate=3401/ratetol=1.0/qcomp=0.60/qpmin=0/qpmax=69/qpstep=4/cplxblur=20.0/qblur=0.5/vbv_maxrate=14000/vbv_bufsize=14000/nal_hrd=none/filler=0/ip_ratio=1.40/aq=1: 1.00
    Default : Да
    Forced : Нет
    Аудио
    Идентификатор : 2
    Формат : PCM
    Идентификатор кодека : A_PCM/INT/LIT
    Продолжительность : 3 м. 29 с.
    Вид битрейта : Постоянный
    Битрейт : 1536 Кбит/сек
    Каналы : 2 канала
    Частота : 48, 0 КГц
    Частота кадров : 32, 004 кадра/сек (1500 SPF)
    Битовая глубина : 16 бит
    Размер потока : 38, 4 Мбайт (31%)
    Default : Да
    Forced : Нет
    Общее
    Уникальный идентификатор : 207623002109117249828057924997031581929 (0x9C32BC56374E29E19BAD06A525BED8E9)
    Полное имя : E: Сборник 90хBest Hits 90 from ALEXnROCK. mkv (Disc 2)81 Tony Braxton - Un-Break My Heart ALEXnROCK.mkv
    Формат : Matroska
    Версия формата : Version 4/Version 2
    Размер файла : 159 Мбайт
    Продолжительность : 4 м. 32 с.
    Общий поток : 4898 Кбит/сек
    Дата кодирования : UTC 2017-03-23 21: 45: 32
    Программа кодирования : mkvmerge v9.8.0 (\'Kuglblids\') 64bit
    Библиотека кодирования : libebml v1.3.4 + libmatroska v1.4.5
    Видео
    Идентификатор : 1
    Формат : AVC
    Формат/Информация : Advanced Video Codec
    Профиль формата : High@L4
    Настройки формата : CABAC/4 Ref Frames
    Параметр CABAC формата : Да
    Параметр RefFrames формата : 4 кадра
    Идентификатор кодека : V_MPEG4/ISO/AVC
    Продолжительность : 4 м. 32 с.
    Битрейт : 3401 Кбит/сек
    Ширина : 1280 пикселей
    Высота : 688 пикселей
    Соотношение сторон : 1, 85: 1
    Режим частоты кадров : Постоянный
    Частота кадров : 29, 970 (30000/1001) кадров/сек
    Цветовое пространство : YUV
    Субдискретизация насыщенности : 4: 2: 0
    Битовая глубина : 8 бит
    Тип развёртки : Прогрессивная
    Бит/(Пиксели*Кадры) : 0.129
    Размер потока : 110 Мбайт (69%)
    Библиотека кодирования : x264 core 146 r2538 121396c
    Настройки программы : cabac=1/ref=3/deblock=1: -1: -1/analyse=0x3: 0x113/me=hex/subme=7/psy=1/psy_rd=1.00: 0.20/mixed_ref=1/me_range=16/chroma_me=1/trellis=1/8x8dct=1/cqm=0/deadzone=21, 11/fast_pskip=1/chroma_qp_offset=-3/threads=12/lookahead_threads=2/sliced_threads=0/nr=0/decimate=0/interlaced=0/bluray_compat=0/constrained_intra=0/bframes=3/b_pyramid=2/b_adapt=1/b_bias=0/direct=3/weightb=1/open_gop=0/weightp=2/keyint=250/keyint_min=25/scenecut=40/intra_refresh=0/rc_lookahead=40/rc=2pass/mbtree=1/bitrate=3401/ratetol=1.0/qcomp=0.60/qpmin=0/qpmax=69/qpstep=4/cplxblur=20.0/qblur=0.5/vbv_maxrate=14000/vbv_bufsize=14000/nal_hrd=none/filler=0/ip_ratio=1.40/aq=1: 1.00
    Default : Да
    Forced : Нет
    Аудио
    Идентификатор : 2
    Формат : PCM
    Идентификатор кодека : A_PCM/INT/LIT
    Продолжительность : 4 м. 24 с.
    Вид битрейта : Постоянный
    Битрейт : 1536 Кбит/сек
    Каналы : 2 канала
    Частота : 48, 0 КГц
    Частота кадров : 32, 001 кадра/сек (1500 SPF)
    Битовая глубина : 16 бит
    Размер потока : 48, 5 Мбайт (30%)
    Default : Да
    Forced : Нет
    Общее
    Уникальный идентификатор : 253658796255032616447631737362754470254 (0xBED4E83A18A585A58242DADBFAEE816E)
    Полное имя : E: Сборник 90хBest Hits 90 from ALEXnROCK. mkv (Disc 2)82 Ace Of Base - Cruel Summer ALEXnROCK.mkv
    Формат : Matroska
    Версия формата : Version 4/Version 2
    Размер файла : 144 Мбайт
    Продолжительность : 4 м. 4 с.
    Общий поток : 4937 Кбит/сек
    Дата кодирования : UTC 2017-03-03 12: 21: 38
    Программа кодирования : mkvmerge v9.8.0 (\'Kuglblids\') 64bit
    Библиотека кодирования : libebml v1.3.4 + libmatroska v1.4.5
    Видео
    Идентификатор : 1
    Формат : AVC
    Формат/Информация : Advanced Video Codec
    Профиль формата : High@L4
    Настройки формата : CABAC/4 Ref Frames
    Параметр CABAC формата : Да
    Параметр RefFrames формата : 4 кадра
    Идентификатор кодека : V_MPEG4/ISO/AVC
    Продолжительность : 4 м. 4 с.
    Битрейт : 3401 Кбит/сек
    Ширина : 1280 пикселей
    Высота : 896 пикселей
    Соотношение сторон : 1, 429
    Режим частоты кадров : Постоянный
    Частота кадров : 25, 000 кадров/сек
    Цветовое пространство : YUV
    Субдискретизация насыщенности : 4: 2: 0
    Битовая глубина : 8 бит
    Тип развёртки : Прогрессивная
    Бит/(Пиксели*Кадры) : 0.119
    Размер потока : 99, 0 Мбайт (69%)
    Библиотека кодирования : x264 core 146 r2538 121396c
    Настройки программы : cabac=1/ref=3/deblock=1: -1: -1/analyse=0x3: 0x113/me=hex/subme=7/psy=1/psy_rd=1.00: 0.20/mixed_ref=1/me_range=16/chroma_me=1/trellis=1/8x8dct=1/cqm=0/deadzone=21, 11/fast_pskip=1/chroma_qp_offset=-3/threads=12/lookahead_threads=2/sliced_threads=0/nr=0/decimate=0/interlaced=0/bluray_compat=0/constrained_intra=0/bframes=3/b_pyramid=2/b_adapt=1/b_bias=0/direct=3/weightb=1/open_gop=0/weightp=2/keyint=250/keyint_min=25/scenecut=40/intra_refresh=0/rc_lookahead=40/rc=2pass/mbtree=1/bitrate=3401/ratetol=1.0/qcomp=0.60/qpmin=0/qpmax=69/qpstep=4/cplxblur=20.0/qblur=0.5/vbv_maxrate=14000/vbv_bufsize=14000/nal_hrd=none/filler=0/ip_ratio=1.40/aq=1: 1.00
    Default : Да
    Forced : Нет
    Аудио
    Идентификатор : 2
    Формат : PCM
    Идентификатор кодека : A_PCM/INT/LIT
    Продолжительность : 4 м. 4 с.
    Вид битрейта : Постоянный
    Битрейт : 1536
    загрузка...
    Рейтинг →
     (голосов: 1, оценка 4/5, голосовать можно 1 раз )

    Другие торренты по теме:

  • Чи-Ли - Сборник клипов (2005-2015) DVDRip WebRip
  • Сборник клипов - Philizz "Video YearMix" (2015) HDTV [1080p]
  • Сборник клипов - Philizz "Tropical Summer" (2016) HDTV [1080p]
  • Сборник клипов - Philizz "I covered the 80s" (season 1, episode 1-5) (2016) WEB-DLRip [H.264 / 720-LQ]
  • Сборник клипов - Philizz "Video Yearmix" (2016) HDTV [AVC / 1080p]
  • Сборник клипов - Philizz "Back To The 90s" (episode 1) (2017) WEB-DLRip [720p]
  • Сборник клипов - Philizz "Back To The 90s" (episode 2) (2017) WEB-DLRip [H.264 / 720p-LQ]
  • Сборник клипов - Philizz "Back To The 90s" (episode 3) (2017) WEB-DLRip [H.264 / 720p-LQ]


    • Комментарии (0):

      Информация

      Информация

        Посетители, находящиеся в группе Гости, не могут оставлять комментарии в данной новости.

        ↓ Меню




        ↓ Опрос

        Вы добавили сайт в закладки?
        Да
        Нет


        Top 10 за месяц (Другое)