.
Авторизация | Регистрация
Хочешь лучшие торренты? Добавь свой email!
Добавить

Торрент скачать бесплатно

» » Анимированная жизнь / Life, Animated (2016) WEB-DLRip [MVO] [AD] торрент скачать бесплатно



    Анимированная жизнь / Life, Animated (2016) WEB-DLRip [MVO] [AD] торрент скачать бесплатно

    Опубликовал: Админ | Дата: 21-11-2017, 05:00 | Просмотров: 0

    Производство: США
    Жанр: Драма, Мелодрама, Семейный
    Режиссер: Роджер Росс Уильямс
    Продюсер: Джули Голдман, Роджер Росс Уильямс, Shanti Avirgan

    Актеры
    Джонатан Фриман, Гилберт Готтфрид, Алан Розенблатт, Оуэн Саскинд

    Описание

    В основе картины лежит книга-бестселлер The New York Times, написанная отцом главного героя — писателем и журналистом Роном Саскиндом, обладателем Пулитцеровской премии. До трех лет его сын Оуэн развивался совершенно нормально. Но однажды, внезапно и необъяснимо, он полностью перестал разговаривать: не мог выражать свои мысли, чувства и желания, выстраивать отношения с окружающими. Тогда ему поставили диагноз аутизм.
    На протяжении многих лет Оуэн и его семья учились находить язык общения друг с другом. Для этого они погрузились в мир диснеевских мультфильмов, знакомых всем с детства. Оуэн очень любил Русалочку и Короля льва, пересматривал их снова и снова. Через них он научился распознавать сложные нюансы взаимоотношений и понимать универсальные механизмы общения. Благодаря им он смог найти новые связи с окружающим миром.

    Рейтинг MPAA: PG (рекомендуется присутствие родителей)
    Дата мировой премьеры: 23 января 2016
    Дата российской премьеры: 1 декабря 2016, ЦДК
    Продолжительность: 01: 31: 51
    Качество видео: WEB-DLRip
    Перевод: Многоголосый закадровый
    Субтитры: Отсутствуют
    Реклама: Присутствует вставка голосовой и текстовой рекламы
    Видео: Xvid, 720x400, ~1727 Kbps
    Аудио: AC3, 2 ch, 384 Kbps

    Общее
    Полное имя : D: ВидеоtorrrentLife.Animated.2016.P.WEB-DLRip.14OOMB.avi
    Формат : AVI
    Формат/Информация : Audio Video Interleave
    Размер файла : 1, 37 Гбайт
    Продолжительность : 1 ч. 32 м.
    Общий поток : 2121 Кбит/сек
    Программа кодирования : VirtualDubMod 1.5.10.2 (build 2540/release)
    Библиотека кодирования : VirtualDubMod build 2540/release
    Видео
    Идентификатор : 0
    Формат : MPEG-4 Visual
    Профиль формата : Advanced Simple@L5
    Параметр BVOP формата : 2
    Параметр QPel формата : Нет
    Параметр GMC формата : Без точки перехода
    Параметр матрицы формата : Default (MPEG)
    Идентификатор кодека : XVID
    Идентификатор кодека/Подсказка : XviD
    Продолжительность : 1 ч. 32 м.
    Битрейт : 1728 Кбит/сек
    Ширина : 720 пикселей
    Высота : 400 пикселей
    Соотношение сторон : 16: 9
    Частота кадров : 23, 976 (24000/1001) кадра/сек
    Цветовое пространство : YUV
    Субдискретизация насыщенности : 4: 2: 0
    Битовая глубина : 8 бит
    Тип развёртки : Прогрессивная
    Метод сжатия : С потерями
    Бит/(Пиксели*Кадры) : 0.250
    Размер потока : 1, 11 Гбайт (81%)
    Библиотека кодирования : XviD 1.2.1 (UTC 2008-12-04)
    Аудио
    Идентификатор : 1
    Формат : AC-3
    Формат/Информация : Audio Coding 3
    Параметр Endianness формата : Big
    Идентификатор кодека : 2000
    Продолжительность : 1 ч. 32 м.
    Вид битрейта : Постоянный
    Битрейт : 384 Кбит/сек
    Каналы : 2 канала
    Расположение каналов : Front: L R
    Частота : 48, 0 КГц
    Частота кадров : 31, 250 кадров/сек (1536 SPF)
    Битовая глубина : 16 бит
    Метод сжатия : С потерями
    Размер потока : 253 Мбайт (18%)
    Выравнивание : Разделение по промежуткам
    Продолжительность промежутка : 42 мс. (1, 00 видеокадр)
    Время предзагрузки промежутка : 500 мс.
    ServiceKind/String : Complete Main

    Скриншоты для ознакомления



    Все одноименные релизы в Клубе
    Время раздачи: 24/7 (до появления первых 3-5 скачавших)

    Прямая ссылка скачивания через uTorrent


    Анимированная жизнь/Life, Animated (2016) WEB-DLRip [MVO] [AD]
    загрузка...
    Рейтинг →
     (голосов: 1, оценка 4/5, голосовать можно 1 раз )

    Другие торренты по теме:

  • Анимированная жизнь / Life, Animated (2016) WEB-DL [H.264 / 1080p-LQ] [MVO] [AD]


    • Комментарии (0):

      Информация

      Информация

        Посетители, находящиеся в группе Гости, не могут оставлять комментарии в данной новости.

        ↓ Меню




        ↓ Опрос

        Вы добавили сайт в закладки?
        Да
        Нет


        Top 10 за месяц (Другое)