.
Авторизация | Регистрация
Хочешь лучшие торренты? Добавь свой email!
Добавить

Торрент скачать бесплатно

» » Анимированная жизнь / Life, Animated (2016) WEB-DL [H.264 / 1080p-LQ] [MVO] [AD] торрент скачать бесплатно




    Анимированная жизнь / Life, Animated (2016) WEB-DL [H.264 / 1080p-LQ] [MVO] [AD] торрент скачать бесплатно

    Опубликовал: Админ | Дата: 21-11-2017, 05:00 | Просмотров: 1

    Производство: США
    Жанр: Документальный, Драма, Мелодрама, Семейный
    Режиссер: Роджер Росс Уильямс
    Продюсер: Джули Голдман, Роджер Росс Уильямс, Shanti Avirgan

    Актеры
    Джонатан Фриман, Гилберт Готтфрид, Алан Розенблатт, Оуэн Саскинд

    Описание

    В основе картины лежит книга-бестселлер The New York Times, написанная отцом главного героя — писателем и журналистом Роном Саскиндом, обладателем Пулитцеровской премии. До трех лет его сын Оуэн развивался совершенно нормально. Но однажды, внезапно и необъяснимо, он полностью перестал разговаривать: не мог выражать свои мысли, чувства и желания, выстраивать отношения с окружающими. Тогда ему поставили диагноз аутизм.
    На протяжении многих лет Оуэн и его семья учились находить язык общения друг с другом. Для этого они погрузились в мир диснеевских мультфильмов, знакомых всем с детства. Оуэн очень любил Русалочку и Короля льва, пересматривал их снова и снова. Через них он научился распознавать сложные нюансы взаимоотношений и понимать универсальные механизмы общения. Благодаря им он смог найти новые связи с окружающим миром.

    Рейтинг MPAA: PG (рекомендуется присутствие родителей)
    Дата мировой премьеры: 23 января 2016
    Дата российской премьеры: 1 декабря 2016, ЦДК
    Продолжительность: 01: 31: 51
    Качество видео: WEB-DL
    Перевод: Многоголосый закадровый
    Субтитры: Отсутствуют
    Реклама: Присутствует вставка голосовой и текстовой рекламы
    Видео: AVC/H.264, 1920x1080, ~4032 Kbps
    Аудио: AC3, 2 ch, 384 Kbps

    Общее
    Уникальный идентификатор : 251464704313771594489545282305699442519 (0xBD2E57246AE3917BE8ABA2CB0DC96F57)
    Полное имя : D: ВидеоtorrrentLife.Animated.2016.P.WEB-DL_1O8Op.mkv
    Формат : Matroska
    Версия формата : Version 4/Version 2
    Размер файла : 2, 89 Гбайт
    Продолжительность : 1 ч. 31 м.
    Режим общего битрейта : Переменный
    Общий поток : 4505 Кбит/сек
    Программа кодирования : Lavf57.71.100
    Библиотека кодирования : Lavf57.71.100
    ErrorDetectionType : Per level 1
    Видео
    Идентификатор : 1
    Формат : AVC
    Формат/Информация : Advanced Video Codec
    Профиль формата : High@L4.1
    Параметр CABAC формата : Да
    Параметр RefFrames формата : 4 кадра
    Идентификатор кодека : V_MPEG4/ISO/AVC
    Продолжительность : 1 ч. 31 м.
    Вид битрейта : Переменный
    Битрейт : 4032 Кбит/сек
    Максимальный битрейт : 4600 Кбит/сек
    Ширина : 1920 пикселей
    Высота : 1080 пикселей
    Соотношение сторон : 16: 9
    Режим частоты кадров : Постоянный
    Частота кадров : 23, 976 (24000/1001) кадра/сек
    Стандарт вещания : Component
    Цветовое пространство : YUV
    Субдискретизация насыщенности : 4: 2: 0
    Битовая глубина : 8 бит
    Тип развёртки : Прогрессивная
    Бит/(Пиксели*Кадры) : 0.081
    Размер потока : 2, 59 Гбайт (89%)
    Default : Да
    Forced : Нет
    Цветовой диапазон : Limited
    Основные цвета : BT.709
    Характеристики трансфера : BT.709
    Коэффициенты матрицы : BT.709
    DURATION : 01: 31: 51.923000000
    Аудио
    Идентификатор : 2
    Формат : AC-3
    Формат/Информация : Audio Coding 3
    Параметр Endianness формата : Big
    Идентификатор кодека : A_AC3
    Продолжительность : 1 ч. 31 м.
    Вид битрейта : Постоянный
    Битрейт : 384 Кбит/сек
    Каналы : 2 канала
    Расположение каналов : Front: L R
    Частота : 48, 0 КГц
    Частота кадров : 31, 250 кадров/сек (1536 SPF)
    Битовая глубина : 16 бит
    Метод сжатия : С потерями
    Задержка видео : -23 мс.
    Размер потока : 252 Мбайт (9%)
    ServiceKind/String : Complete Main
    Default : Да
    Forced : Нет
    DURATION : 01: 31: 51.891000000

    Скриншоты для ознакомления



    Все одноименные релизы в Клубе
    Время раздачи: 24/7 (до появления первых 3-5 скачавших)


    Анимированная жизнь/Life, Animated (2016) WEB-DL [H.264/1080p-LQ] [MVO] [AD]
    загрузка...
    Рейтинг →
     (голосов: 1, оценка 4/5, голосовать можно 1 раз )

    Другие торренты по теме:

  • Анимированная жизнь / Life, Animated (2016) WEB-DLRip [MVO] [AD]


    • Комментарии (0):

      Информация

      Информация

        Посетители, находящиеся в группе Гости, не могут оставлять комментарии в данной новости.

        ↓ Меню




        ↓ Опрос

        Вы добавили сайт в закладки?
        Да
        Нет


        Top 10 за месяц (Другое)