.
Авторизация | Регистрация
Хочешь лучшие торренты? Добавь свой email!
Добавить

Торрент скачать бесплатно

» » Приготовиться к удару / Brace for Impact (2016) HDTVRip [MVO] [AD] торрент скачать бесплатно




    Приготовиться к удару / Brace for Impact (2016) HDTVRip [MVO] [AD] торрент скачать бесплатно

    Опубликовал: Админ | Дата: 21-11-2017, 05:00 | Просмотров: 0

    Производство: Канада
    Жанр: Триллер
    Режиссер: Мишель Полетт
    Продюсер: Йен Уайтхед, Жан Бьюро

    Актеры
    Керри Кондон, Шила МакКарти, Эннис Эсмер, Рафаэль Петарди, Йен Лэйк, Кевин МакГарри, Джоэль Келлер, Maria Herrera, Мишель Хейслер, Гай Буллер

    Описание

    Потеряв брата во время крушения самолёта, на котором должна была лететь и она, следователь по имени София нарушает регламент и начинает собственное расследование катастрофы. Никто, включая её саму, не знает, почему она покинула тот самолёт перед самым взлётом, что делает её такой же подозреваемой в его крушении для всех коллег и общественности.

    Возраст: 18+ (зрителям, достигшим 18 лет. запрещено для детей)
    Дата мировой премьеры: 3 апреля 2016
    Продолжительность: 01: 27: 57
    Качество видео: HDTVRip
    Перевод: Многоголосый закадровый
    Субтитры: Отсутствуют
    Реклама: Присутствует вставка видео, голосовой и текстовой рекламы
    Видео: Xvid, 720x400, ~1766 Kbps
    Аудио: AC3, 2 ch, 384 Kbps

    Общее
    Полное имя : D: ВидеоtorrrentPrigotovitjsya.k.ydary.2016.P.HDTVRip.14OOMB.avi
    Формат : AVI
    Формат/Информация : Audio Video Interleave
    Размер файла : 1, 33 Гбайт
    Продолжительность : 1 ч. 27 м.
    Общий поток : 2161 Кбит/сек
    Видео
    Идентификатор : 0
    Формат : MPEG-4 Visual
    Профиль формата : Advanced Simple@L5
    Параметр BVOP формата : 2
    Параметр QPel формата : Нет
    Параметр GMC формата : Без точки перехода
    Параметр матрицы формата : Default (MPEG)
    Идентификатор кодека : XVID
    Идентификатор кодека/Подсказка : XviD
    Продолжительность : 1 ч. 27 м.
    Битрейт : 1766 Кбит/сек
    Ширина : 720 пикселей
    Высота : 400 пикселей
    Соотношение сторон : 16: 9
    Частота кадров : 23, 976 (24000/1001) кадра/сек
    Цветовое пространство : YUV
    Субдискретизация насыщенности : 4: 2: 0
    Битовая глубина : 8 бит
    Тип развёртки : Прогрессивная
    Метод сжатия : С потерями
    Бит/(Пиксели*Кадры) : 0.256
    Размер потока : 1, 08 Гбайт (82%)
    Библиотека кодирования : XviD 1.2.1 (UTC 2008-12-04)
    Аудио
    Идентификатор : 1
    Формат : AC-3
    Формат/Информация : Audio Coding 3
    Параметр Endianness формата : Big
    Идентификатор кодека : 2000
    Продолжительность : 1 ч. 27 м.
    Вид битрейта : Постоянный
    Битрейт : 384 Кбит/сек
    Каналы : 2 канала
    Расположение каналов : Front: L R
    Частота : 48, 0 КГц
    Частота кадров : 31, 250 кадров/сек (1536 SPF)
    Битовая глубина : 16 бит
    Метод сжатия : С потерями
    Задержка видео : 32 мс.
    Размер потока : 242 Мбайт (18%)
    Выравнивание : Разделение по промежуткам
    Продолжительность промежутка : 32 мс. (0, 77 видеокадр)
    ServiceKind/String : Complete Main

    Скриншоты для ознакомления



    Все одноименные релизы в Клубе
    Время раздачи: 24/7 (до появления первых 3-5 скачавших)


    Приготовиться к удару/Brace for Impact (2016) HDTVRip [MVO] [AD]
    загрузка...
    Рейтинг →
     (голосов: 1, оценка 4/5, голосовать можно 1 раз )

    Другие торренты по теме:

  • Приготовиться к удару / Brace for Impact (2016) HDTVRip [H.264 / 720p-LQ] [MVO] [AD]


    • Комментарии (0):

      Информация

      Информация

        Посетители, находящиеся в группе Гости, не могут оставлять комментарии в данной новости.

        ↓ Меню




        ↓ Опрос

        Вы добавили сайт в закладки?
        Да
        Нет


        Top 10 за месяц (Другое)