.
Авторизация | Регистрация
Хочешь лучшие торренты? Добавь свой email!
Добавить

Торрент скачать бесплатно

» » Приготовиться к удару / Brace for Impact (2016) HDTVRip [H.264 / 720p-LQ] [MVO] [AD] торрент скачать бесплатно




    Приготовиться к удару / Brace for Impact (2016) HDTVRip [H.264 / 720p-LQ] [MVO] [AD] торрент скачать бесплатно

    Опубликовал: Админ | Дата: 21-11-2017, 05:00 | Просмотров: 0

    Производство: Канада
    Жанр: Триллер
    Режиссер: Мишель Полетт
    Продюсер: Йен Уайтхед, Жан Бьюро

    Актеры
    Керри Кондон, Шила МакКарти, Эннис Эсмер, Рафаэль Петарди, Йен Лэйк, Кевин МакГарри, Джоэль Келлер, Maria Herrera, Мишель Хейслер, Гай Буллер

    Описание

    Потеряв брата во время крушения самолёта, на котором должна была лететь и она, следователь по имени София нарушает регламент и начинает собственное расследование катастрофы. Никто, включая её саму, не знает, почему она покинула тот самолёт перед самым взлётом, что делает её такой же подозреваемой в его крушении для всех коллег и общественности.

    Возраст: 18+ (зрителям, достигшим 18 лет. запрещено для детей)
    Дата мировой премьеры: 3 апреля 2016
    Продолжительность: 01: 27: 57
    Качество видео: HDTVRip
    Перевод: Многоголосый закадровый
    Субтитры: Отсутствуют
    Реклама: Присутствует вставка видео, голосовой и текстовой рекламы
    Видео: AVC/H.264, 1240x720, ~3956 Kbps
    Аудио: AC3, 2 ch, 384 Kbps

    Общее
    Уникальный идентификатор : 313844117825519955655773244925839034141 (0xEC1C2DAE2D96305B2396EA98DFBE471D)
    Полное имя : D: ВидеоtorrrentPrigotovitjsya.k.ydary.2016.P.HDTV.72Op.mkv
    Формат : Matroska
    Версия формата : Version 4/Version 2
    Размер файла : 2, 72 Гбайт
    Продолжительность : 1 ч. 27 м.
    Режим общего битрейта : Переменный
    Общий поток : 4428 Кбит/сек
    Программа кодирования : Lavf57.71.100
    Библиотека кодирования : Lavf57.71.100
    ErrorDetectionType : Per level 1
    Видео
    Идентификатор : 1
    Формат : AVC
    Формат/Информация : Advanced Video Codec
    Профиль формата : High@L4.1
    Параметр CABAC формата : Да
    Параметр RefFrames формата : 9 кадров
    Идентификатор кодека : V_MPEG4/ISO/AVC
    Продолжительность : 1 ч. 27 м.
    Вид битрейта : Переменный
    Битрейт : 3956 Кбит/сек
    Максимальный битрейт : 4500 Кбит/сек
    Ширина : 1280 пикселей
    Высота : 720 пикселей
    Соотношение сторон : 16: 9
    Режим частоты кадров : Постоянный
    Частота кадров : 23, 976 (24000/1001) кадра/сек
    Стандарт вещания : Component
    Цветовое пространство : YUV
    Субдискретизация насыщенности : 4: 2: 0
    Битовая глубина : 8 бит
    Тип развёртки : Прогрессивная
    Бит/(Пиксели*Кадры) : 0.179
    Размер потока : 2, 43 Гбайт (89%)
    Default : Да
    Forced : Нет
    Цветовой диапазон : Limited
    Основные цвета : BT.709
    Характеристики трансфера : BT.709
    Коэффициенты матрицы : BT.709
    DURATION : 01: 27: 57.438000000
    Аудио
    Идентификатор : 2
    Формат : AC-3
    Формат/Информация : Audio Coding 3
    Параметр Endianness формата : Big
    Идентификатор кодека : A_AC3
    Продолжительность : 1 ч. 27 м.
    Вид битрейта : Постоянный
    Битрейт : 384 Кбит/сек
    Каналы : 2 канала
    Расположение каналов : Front: L R
    Частота : 48, 0 КГц
    Частота кадров : 31, 250 кадров/сек (1536 SPF)
    Битовая глубина : 16 бит
    Метод сжатия : С потерями
    Размер потока : 242 Мбайт (9%)
    ServiceKind/String : Complete Main
    Default : Да
    Forced : Нет
    DURATION : 01: 27: 57.422000000

    Скриншоты для ознакомления



    Все одноименные релизы в Клубе
    Время раздачи: 24/7 (до появления первых 3-5 скачавших)


    Приготовиться к удару/Brace for Impact (2016) HDTVRip [H.264/720p-LQ] [MVO] [AD]
    загрузка...
    Рейтинг →
     (голосов: 1, оценка 5/5, голосовать можно 1 раз )

    Другие торренты по теме:

  • Приготовиться к удару / Brace for Impact (2016) HDTVRip [MVO] [AD]


    • Комментарии (0):

      Информация

      Информация

        Посетители, находящиеся в группе Гости, не могут оставлять комментарии в данной новости.

        ↓ Меню




        ↓ Опрос

        Вы добавили сайт в закладки?
        Да
        Нет


        Top 10 за месяц (Другое)