.
Авторизация | Регистрация
Хочешь лучшие торренты? Добавь свой email!
Добавить

Торрент скачать бесплатно

» » Фисгармония / Fuchi ni tatsu (2016) HDRip [MVO] [AD] торрент скачать бесплатно




    Фисгармония / Fuchi ni tatsu (2016) HDRip [MVO] [AD] торрент скачать бесплатно

    Опубликовал: Админ | Дата: 20-11-2017, 05:00 | Просмотров: 1

    Производство: Япония, Франция/Comme des Cinémas, Nagoya Broadcasting Network (NBN)
    Жанр: Драма
    Режиссер: Кодзи Фукада

    Актеры
    Таданобу Асано, Марико Цуцуи, Кандзи Фурутати, Кана Махиро, Такахиро Миура, Момонэ Синокава

    Описание

    Хозяин скобяной мастерской Тосио Судзуока привык верить людям. Когда он внезапно взял на работу и поселил в собственном доме бывшего зека Ясаку, домашние сначала были в шоке. Но однажды жена Судзуоки увидела как новый работник учит их дочку играть на фиcгармонии и сердце женщины оттаяло. Но не поспешила ли она с выводами?

    Продолжительность: 02: 00: 17
    Качество видео: HDRip
    Перевод: Многоголосый закадровый, любительский (GreenРай Studio)
    Субтитры: отсутствуют
    Реклама: присутствуют аудио и видео вставки рекламы
    Видео: Xvid, 720x432, ~1400 Kbps
    Аудио: MP3, 2 ch, 320 Kbps

    General
    Complete name : /media/win/TORRENT/UPLOAD TORRENTS/Harmonium.2016.P.HDRip.1.46GB.avi
    Format : AVI
    Format/Info : Audio Video Interleave
    File size : 1.45 GiB
    Duration : 2 h 0 min
    Overall bit rate : 1 729 kb/s
    Writing application : VirtualDubMod 1.5.10.2 (build 2540/release)
    Writing library : VirtualDubMod build 2540/release
    Video
    ID : 0
    Format : MPEG-4 Visual
    Format profile : Advanced Simple@L5
    Format settings : BVOP2
    Format settings, BVOP : 2
    Format settings, QPel : No
    Format settings, GMC : No warppoints
    Format settings, Matrix : Default (MPEG)
    Codec ID : XVID
    Codec ID/Hint : XviD
    Duration : 2 h 0 min
    Bit rate : 1 400 kb/s
    Width : 720 pixels
    Height : 432 pixels
    Display aspect ratio : 5: 3
    Frame rate : 23.976 (24000/1001) FPS
    Color space : YUV
    Chroma subsampling : 4: 2: 0
    Bit depth : 8 bits
    Scan type : Progressive
    Compression mode : Lossy
    Bits/(Pixel*Frame) : 0.188
    Stream size : 1.18 GiB (81%)
    Writing library : XviD 67
    Audio
    ID : 1
    Format : MPEG Audio
    Format version : Version 1
    Format profile : Layer 3
    Format settings : Joint stereo
    Codec ID : 55
    Codec ID/Hint : MP3
    Duration : 2 h 0 min
    Bit rate mode : Constant
    Bit rate : 320 kb/s
    Channel(s) : 2 channels
    Sampling rate : 48.0 kHz
    Compression mode : Lossy
    Stream size : 275 MiB (19%)
    Alignment : Aligned on interleaves
    Interleave, duration : 42 ms (1.00 video frame)
    Interleave, preload duration : 504 ms


    Фисгармония/Fuchi ni tatsu (2016) HDRip [MVO] [AD]
    загрузка...
    Рейтинг →
     (голосов: 1, оценка 3/5, голосовать можно 1 раз )

    Другие торренты по теме:



      Комментарии (0):

      Информация

      Информация

        Посетители, находящиеся в группе Гости, не могут оставлять комментарии в данной новости.

        ↓ Меню




        ↓ Опрос

        Вы добавили сайт в закладки?
        Да
        Нет


        Top 10 за месяц (Другое)