.
Авторизация | Регистрация
Хочешь лучшие торренты? Добавь свой email!
Добавить

Торрент скачать бесплатно

» » Звёздные войны: Эпизод 4 – Новая надежда / Star Wars: Episode IV – A New Hope (1977) HDRip [H.264] [Hand Made Extended Cut] торрент скачать бесплатно




    Звёздные войны: Эпизод 4 – Новая надежда / Star Wars: Episode IV – A New Hope (1977) HDRip [H.264] [Hand Made Extended Cut] торрент скачать бесплатно

    Опубликовал: Админ | Дата: 19-11-2017, 05:00 | Просмотров: 0

    Производство: США/20th Century Fox Film Corporation, Lucasfilm Ltd.
    Жанр: Боевик, Приключения, Фантастика
    Режиссер: Джордж Лукас

    Актеры
    Марк Хэмилл, Харрисон Форд, Кэрри Фишер, Питер Кушинг, Алек Гиннесс, Энтони Дэниелс, Кенни Бейкер, Питер Мейхью, Дэвид Праус, Фил Браун

    Описание

    Татуин. Планета-пустыня. Уже постаревший рыцарь Джедай Оби Ван Кеноби спасает молодого Люка Скайуокера, когда тот пытается отыскать пропавшего дроида. С этого момента Люк осознает свое истинное назначение: он один из рыцарей Джедай. В то время как гражданская война охватила галактику, а войска повстанцев ведут бои против сил злого Императора, к Люку и Оби Вану присоединяется отчаянный пилот-наемник Хан Соло, и в сопровождении двух дроидов, R2D2 и C-3PO, этот необычный отряд отправляется на поиски предводителя повстанцев — принцессы Леи. Героям предстоит отчаянная схватка с устрашающим Дартом Вейдером — правой рукой Императора и его секретным оружием — Звездой Смерти.

    Возраст: 0+ (для любой зрительской аудитории)
    Рейтинг MPAA: PG (рекомендуется присутствие родителей)
    Релиз от: MAG3131
    Продолжительность: 02: 11: 14
    Качество видео: HDRip
    Перевод: Дублированный с вставками любительского псевдо-дубляжа \'\'Dars Group\'\' x3
    Субтитры: Отсутствуют
    Видео: AVC/H.264, 720x288, ~1655 kbps, 29, 970 fps
    Аудио #01: AC3, 2 ch, 192 kbps (Русский - Дублированный \'\'BD CEE\'\' с вставками любительского псевдо-дубляжа \'\'Dars Group\'\')
    Аудио #02: AC3, 2 ch, 192 kbps (Русский - Дублированный \'\'К/c им. М. Горького\'\' с вставками любительского псевдо-дубляжа \'\'Dars Group\'\')
    Аудио #03: AC3, 2 ch, 192 kbps (Русский - Дублированный \'\'ОРТ\'\' с вставками любительского псевдо-дубляжа \'\'Dars Group\'\')
    Данная версия фильма на Blu-Ray не выходила как расширенная версия. Поэтому это Неофициальная (фанатная) версия. Добавленные сцены отличаются по качеству видео от самого фильма.

    Общее
    Уникальный идентификатор : 207949599336231599010887356774462361631 (0x9C71A2D2C37CBB3385C546C3EC25901F)
    Полное имя : Звездные войны - 04 \'\'Новая надежда\'\' (Расширенная версия) (Star Wars - 04 \'\'A New Hope\'\') (Extended Cut).mkv
    Формат : Matroska
    Версия формата : Version 2
    Размер файла : 2, 05 Гбайт
    Продолжительность : 2 ч. 11 м.
    Общий поток : 2233 Кбит/сек
    Дата кодирования : UTC 2017-11-17 15: 32: 33
    Программа кодирования : mkvmerge v17.0.0 (\'Be Ur Friend\') 64-bit
    Библиотека кодирования : libebml v1.3.5 + libmatroska v1.4.8
    Видео
    Идентификатор : 1
    Формат : AVC
    Формат/Информация : Advanced Video Codec
    Профиль формата : High@L4.1
    Настройки формата : CABAC/12 Ref Frames
    Параметр CABAC формата : Да
    Параметр RefFrames формата : 12 кадров
    Идентификатор кодека : V_MPEG4/ISO/AVC
    Продолжительность : 2 ч. 11 м.
    Битрейт : 1655 Кбит/сек
    Ширина : 720 пикселей
    Высота : 288 пикселей
    Соотношение сторон : 2, 500
    Режим частоты кадров : Постоянный
    Частота кадров : 29, 970 (29970/1000) кадров/сек
    Цветовое пространство : YUV
    Субдискретизация насыщенности : 4: 2: 0
    Битовая глубина : 8 бит
    Тип развёртки : Прогрессивная
    Бит/(Пиксели*Кадры) : 0.266
    Размер потока : 1, 48 Гбайт (72%)
    Заголовок : Звездные войны - 04 \'\'Новая надежда\'\' (Расширенная версия) (Star Wars - 04 \'\'A New Hope\'\') (Extended Cut)
    Библиотека кодирования : x264 core 152 r2851 ba24899
    Настройки программы : cabac=1/ref=12/deblock=1: -1: -1/analyse=0x3: 0x133/me=umh/subme=11/psy=1/psy_rd=1.00: 0.15/mixed_ref=1/me_range=64/chroma_me=1/trellis=2/8x8dct=1/cqm=0/deadzone=21, 11/fast_pskip=0/chroma_qp_offset=-3/threads=6/lookahead_threads=1/sliced_threads=0/nr=0/decimate=0/interlaced=0/bluray_compat=0/constrained_intra=0/bframes=16/b_pyramid=2/b_adapt=2/b_bias=0/direct=3/weightb=1/open_gop=0/weightp=2/keyint=300/keyint_min=29/scenecut=40/intra_refresh=0/rc_lookahead=60/rc=2pass/mbtree=0/bitrate=1655/ratetol=1.0/qcomp=0.60/qpmin=0/qpmax=69/qpstep=4/cplxblur=20.0/qblur=0.5/vbv_maxrate=50000/vbv_bufsize=62500/nal_hrd=none/filler=0/ip_ratio=1.40/pb_ratio=1.30/aq=1: 1.00
    Язык : English
    Default : Да
    Forced : Нет
    Аудио #1
    Идентификатор : 2
    Формат : AC-3
    Формат/Информация : Audio Coding 3
    Идентификатор кодека : A_AC3
    Продолжительность : 2 ч. 11 м.
    Вид битрейта : Постоянный
    Битрейт : 192 Кбит/сек
    Каналы : 2 канала
    Расположение каналов : Front: L R
    Частота : 48, 0 КГц
    Частота кадров : 31, 250 кадров/сек (1536 SPF)
    Битовая глубина : 16 бит
    Метод сжатия : С потерями
    Размер потока : 180 Мбайт (9%)
    Заголовок : Дублированный \'\'Blu-ray CEE\'\' с вставками любительского псевдо-дубляжа \'\'Dars Group\'\' (AC-3, Постоянный, 192 Кбит/сек, 2 канала, 48, 0 КГц)
    Язык : Russian
    ServiceKind/String : Complete Main
    Default : Да
    Forced : Нет
    Аудио #2
    Идентификатор : 3
    Формат : AC-3
    Формат/Информация : Audio Coding 3
    Идентификатор кодека : A_AC3
    Продолжительность : 2 ч. 11 м.
    Вид битрейта : Постоянный
    Битрейт : 192 Кбит/сек
    Каналы : 2 канала
    Расположение каналов : Front: L R
    Частота : 48, 0 КГц
    Частота кадров : 31, 250 кадров/сек (1536 SPF)
    Битовая глубина : 16 бит
    Метод сжатия : С потерями
    Размер потока : 180 Мбайт (9%)
    Заголовок : Дублированный \'\'Киностудия имени Максима Горького\'\' с вставками любительского псевдо-дубляжа \'\'Dars Group\'\' (AC-3, Постоянный, 192 Кбит/сек, 2 канала, 48, 0 КГц)
    Язык : Russian
    ServiceKind/String : Complete Main
    Default : Нет
    Forced : Нет
    Аудио #3
    Идентификатор : 4
    Формат : AC-3
    Формат/Информация : Audio Coding 3
    Идентификатор кодека : A_AC3
    Продолжительность : 2 ч. 11 м.
    Вид битрейта : Постоянный
    Битрейт : 192 Кбит/сек
    Каналы : 2 канала
    Расположение каналов : Front: L R
    Частота : 48, 0 КГц
    Частота кадров : 31, 250 кадров/сек (1536 SPF)
    Битовая глубина : 16 бит
    Метод сжатия : С потерями
    Размер потока : 180 Мбайт (9%)
    Заголовок : Дублированный \'\'ОРТ\'\' с вставками любительского псевдо-дубляжа \'\'Dars Group\'\' (AC-3, Постоянный, 192 Кбит/сек, 2 канала, 48, 0 КГц)
    Язык : Russian
    ServiceKind/String : Complete Main
    Default : Нет
    Forced : Нет

    Скриншоты для ознакомления



    Все одноименные релизы в Клубе
    Время раздачи: 24/7 до первых 10 скачавших, потом ухожу с раздачи


    Звёздные войны: Эпизод 4 – Новая надежда/Star Wars: Episode IV – A New Hope (1977) HDRip [H.264] [Hand Made Extended Cut]
    загрузка...
    Рейтинг →
     (голосов: 1, оценка 4/5, голосовать можно 1 раз )

    Другие торренты по теме:

  • Звёздные войны. Эпизод 5: Империя наносит ответный удар / Star Wars: Episode V - The Empire Strikes Back / Despecialized Edition Theatrical reconstruction HD (1980) BDRip скачать через торрент бесплатно
  • Звёздные войны: Повстанцы / Star Wars: Rebels (2014) WEB-DLRip (Сезон 1, Серий 3 из 16) (LostFilm)
  • Финес и Ферб. Звёздные войны / Phineas and Ferb: Star Wars (2014) WEB-DLRip (ЛанселаП) скачать через торрент бесплатно
  • Звёздные войны: Повстанцы / Star Wars: Rebels (2014) WEB-DLRip [1080p] (Сезон 1, серий 8 из 16) (LostFilm) скачать через торрент бесплатно
  • Звёздные войны: Повстанцы / Star Wars: Rebels (2014) WEB-DLRip (Сезон 1, серий 7 из 16) (Невафильм) (обновляемая)
  • Звёздные войны: Повстанцы 1.0.0 - Официальная игра по мотивам популярного серила [Ru] скачать через торрент бесплатно
  • Звёздные войны: Повстанцы 1.0.2 [Ru / En] скачать через торрент бесплатно
  • Звёздные войны: Сага / Star Wars: The Complete Saga (1977-2005) HDRip [H.264][MP4|960х400] скачать через торрент бесплатно


    • Комментарии (0):

      Информация

      Информация

        Посетители, находящиеся в группе Гости, не могут оставлять комментарии в данной новости.

        ↓ Меню




        ↓ Опрос

        Вы добавили сайт в закладки?
        Да
        Нет


        Top 10 за месяц (Другое)