.
Авторизация | Регистрация
Хочешь лучшие торренты? Добавь свой email!
Добавить

Торрент скачать бесплатно

» » Тайны мадам Вонг (1986) DVD5 [hand made реставрация] торрент скачать бесплатно




    Тайны мадам Вонг (1986) DVD5 [hand made реставрация] торрент скачать бесплатно

    Опубликовал: Админ | Дата: 18-11-2017, 05:00 | Просмотров: 1

    Производство: СССР, Казахфильм
    Жанр: Детектив, Приключения, Боевик
    Режиссер: Степан Пучинян

    Актеры
    Болот Бейшеналиев, Александр Абдулов, Армен Джигарханян, Серик Конокбаев, Марина Левтова, Лариса Лужина, Ирина Мирошниченко, Александр Пороховщиков, Евгений Жариков, Дилором Камбарова, Олег Ли

    Описание

    После проведения полицейской операции в руки комиссару Томпсону попадает карта с указанием места нахождения клада, принадлежащего пиратскому синдикату.
    Он решает завладеть золотом, чтобы заплатить выкуп за похищенного внука. Но решающая схватка с мафией, возглавляемой неуловимой мадам Вонг, которая уже идет по его следу, еще впереди…

    Возраст: 12+ (зрителям, достигшим 12 лет)
    Релиз от: smithland
    Продолжительность: 01: 25: 52
    Качество видео: DVD5
    Видео: MPEG-2, 720x480@853x480, ~6022 kb/s
    Аудио: AC3, 2 ch, 192 kbps

    General
    Complete name : Тайны мадам Вонг
    Format : MPEG-PS
    File size : 3.80 GiB
    Duration : 1 h 25 min
    Overall bit rate mode : Variable
    Overall bit rate : 6 340 kb/s
    Video
    ID : 224 (0xE0)
    Format : MPEG Video
    Format version : Version 2
    Format profile : Main@Main
    Format settings, BVOP : Yes
    Format settings, Matrix : Default
    Format settings, GOP : M=3, N=12
    Duration : 1 h 25 min
    Bit rate mode : Variable
    Bit rate : 6 022 kb/s
    Maximum bit rate : 9 200 kb/s
    Width : 720 pixels
    Height : 480 pixels
    Display aspect ratio : 16: 9
    Frame rate : 29.970 (30000/1001) FPS
    Standard : Component
    Color space : YUV
    Chroma subsampling : 4: 2: 0
    Bit depth : 8 bits
    Scan type : Progressive
    Compression mode : Lossy
    Bits/(Pixel*Frame) : 0.581
    Time code of first frame : 00: 00: 00: 00
    Time code source : Group of pictures t_head
    GOP, Open/Closed : Closed
    Stream size : 3.61 GiB (95%)
    Color primaries : BT.601 NTSC
    Transfer characteristics : BT.601
    Matrix coefficients : BT.601
    Audio
    ID : 189 (0xBD)-128 (0x80)
    Format : AC-3
    Format/Info : Audio Coding 3
    Format settings, Endianness : Big
    Muxing mode : DVD-Video
    Duration : 1 h 25 min
    Bit rate mode : Constant
    Bit rate : 192 kb/s
    Channel(s) : 2 channels
    Channel positions : Front: L R
    Sampling rate : 48.0 kHz
    Frame rate : 31.250 FPS (1536 SPF)
    Bit depth : 16 bits
    Compression mode : Lossy
    Delay relative to video : -34 ms
    Stream size : 118 MiB (3%)
    Service kind : Complete Main


    Тайны мадам Вонг (1986) DVD5 [hand made реставрация]
    загрузка...
    Рейтинг →
     (голосов: 1, оценка 5/5, голосовать можно 1 раз )

    Другие торренты по теме:

  • Нераскрытые тайны. Тайны Кремлевских концертов (2014) SATRip
  • Тайны истории: Тайны римских черепов / Secret History: The Mystery of the Crossrail Skulls (2016) HDTVRip [H.264 / 720p-LQ] (сезон 16, эпизод 2)
  • Тайны мира с Анной Чапман (2014.09.26) SATRip
  • Книжная серия | Тайны древних цивилизаций [121 книга] (1998-2011) [FB2, PDF, DJVU]
  • Хэйвен / Тайны Хейвена / Haven (2014) WEB-DLRip (Сезон 5, серии 1-3 из 26) (BaibaKo) (обновляемая)
  • Хэйвен / Тайны Хейвена / Haven (2014) WEB-DL [H.264 / 720p-LQ] (Сезон 5, серии 1-3 из 26) (BaibaKo) (обновляемая)
  • Загадки и тайны семьи Медичи / The Medici Files (2013) HDTVRip [H.264 / 720i-LQ] [1-2 серия из 2]
  • Книжная серия | Тайны Третьего Рейха [5 книг] (2011) [PDF] скачать через торрент бесплатно


    • Комментарии (0):

      Информация

      Информация

        Посетители, находящиеся в группе Гости, не могут оставлять комментарии в данной новости.

        ↓ Меню




        ↓ Опрос

        Вы добавили сайт в закладки?
        Да
        Нет


        Top 10 за месяц (Другое)