.
Авторизация | Регистрация
Хочешь лучшие торренты? Добавь свой email!
Добавить

Торрент скачать бесплатно

» » Стражи Галактики. Часть 2 / Guardians of the Galaxy Vol. 2 (2017) BDRemux [H.264 / 1080p] [IMAX Edition] [hand made 16:9] торрент скачать бесплатно




    Стражи Галактики. Часть 2 / Guardians of the Galaxy Vol. 2 (2017) BDRemux [H.264 / 1080p] [IMAX Edition] [hand made 16:9] торрент скачать бесплатно

    Опубликовал: Админ | Дата: 15-11-2017, 05:00 | Просмотров: 0

    Производство: США, Новая Зеландия, Канада
    Жанр: Фантастика, Боевик, Приключения, Комедия
    Режиссер: Джеймс Ганн

    Актеры
    Крис Пратт, Зои Салдана, Дэйв Батиста, Вин Дизель, Брэдли Купер, Майкл Рукер, Карен Гиллан, Пом Клементьефф, Элизабет Дебики, Курт Рассел, Сильвестр Сталлоне, Крис Салливан, Шон Ганн

    Описание

    Все в сборе: землянин Питер Квилл (Звездный Лорд), молчаливый громила Дракс, зеленокожая наемница Гамора, живое дерево Грут и говорящий енот. Герои не изменяют себе и с завидной регулярностью продолжают попадать в немыслимые ситуации, выпутываясь из них почти без ущерба (а иногда даже с пользой) для окружающих. На этот раз им предстоит раскрыть одну из самых главных тайн во всей Галактике: кто же на самом деле отец Питера Квилла?

    Возраст: 16+ (зрителям, достигшим 16 лет)
    Рейтинг MPAA: PG-13 (детям до 13 лет просмотр нежелателен)
    Продолжительность: 02: 15: 46
    Качество видео: BDRemux
    Перевод: Дублированный
    Субтитры: Отсутствуют
    Видео: AVC/H.264, 1920x1080, ~26.7 Mbps
    Аудио #1: AC3, 6 ch, 640 Kbps, 48, 0 KHz - Russian (русский)
    Аудио #2: AC3, 6 ch, 640 Kbps, 48, 0 KHz - Kazakh (казахский)
    Аудио #3: AC3, 6 ch, 640 Kbps, 48, 0 KHz - Czech (чешский)
    Аудио #4: AC3, 6 ch, 640 Kbps, 48, 0 KHz - Polish (польский)
    Аудио #5: DTS, 6 ch, 1509 Kbps, 48.0 KHz - English (английский)

    Complete name : Guardians of the Galaxy Vol. 2 (2017).mkv
    Format : Matroska
    Format version : Version 2
    File size : 29.8 GiB
    Duration : 2 h 15 min
    Overall bit rate : 31.4 Mb/s
    Encoded date : UTC 2017-11-06 13: 19: 51
    Writing application : mkvmerge v5.6.0 (\'Kenya Kane\')
    Writing library : libebml v1.2.3 + libmatroska v1.3.0
    Video
    ID : 1
    Format : AVC
    Format/Info : Advanced Video Codec
    Format profile : High@L4.2
    Format settings : CABAC/2 Ref Frames
    Format settings, CABAC : Yes
    Format settings, RefFrames : 2 frames
    Format settings, GOP : M=1, N=3
    Codec ID : V_MPEG4/ISO/AVC
    Duration : 2 h 15 min
    Bit rate : 26.7 Mb/s
    Nominal bit rate : 30.0 Mb/s
    Width : 1 920 pixels
    Height : 1 080 pixels
    Display aspect ratio : 16: 9
    Frame rate mode : Constant
    Frame rate : 23.976 FPS
    Color space : YUV
    Chroma subsampling : 4: 2: 0
    Bit depth : 8 bits
    Scan type : Progressive
    Bits/(Pixel*Frame) : 0.537
    Stream size : 25.3 GiB (85%)
    Writing library : x264 core 146 r2538
    Encoding settings : cabac=1/ref=2/deblock=1: 0: 0/analyse=0x3: 0x133/me=hex/subme=7/psy=1/psy_rd=1.00: 0.00/mixed_ref=0/me_range=16/chroma_me=1/trellis=1/8x8dct=1/cqm=0/deadzone=21, 11/fast_pskip=1/chroma_qp_offset=-2/threads=6/lookahead_threads=1/sliced_threads=0/nr=0/decimate=1/interlaced=0/bluray_compat=0/constrained_intra=0/bframes=3/b_pyramid=0/b_adapt=1/b_bias=0/direct=3/weightb=1/open_gop=0/weightp=2/keyint=239/keyint_min=23/scenecut=40/intra_refresh=0/rc_lookahead=40/rc=cbr/mbtree=1/bitrate=30000/ratetol=1.0/qcomp=0.60/qpmin=10/qpmax=69/qpstep=4/vbv_maxrate=30000/vbv_bufsize=24000/nal_hrd=none/filler=0/ip_ratio=1.40/aq=3: 1.00
    Default : Yes
    Forced : No
    Audio #1
    ID : 2
    Format : AC-3
    Format/Info : Audio Coding 3
    Format settings, Endianness : Big
    Codec ID : A_AC3
    Duration : 2 h 15 min
    Bit rate mode : Constant
    Bit rate : 640 kb/s
    Channel(s) : 6 channels
    Channel positions : Front: L C R, Side: L R, LFE
    Sampling rate : 48.0 kHz
    Frame rate : 31.250 FPS (1536 SPF)
    Bit depth : 16 bits
    Compression mode : Lossy
    Stream size : 622 MiB (2%)
    Title : Surround 5.1
    Language : Russian
    Service kind : Complete Main
    Default : Yes
    Forced : No
    Audio #2
    ID : 3
    Format : AC-3
    Format/Info : Audio Coding 3
    Format settings, Endianness : Big
    Codec ID : A_AC3
    Duration : 2 h 15 min
    Bit rate mode : Constant
    Bit rate : 640 kb/s
    Channel(s) : 6 channels
    Channel positions : Front: L C R, Side: L R, LFE
    Sampling rate : 48.0 kHz
    Frame rate : 31.250 FPS (1536 SPF)
    Bit depth : 16 bits
    Compression mode : Lossy
    Stream size : 622 MiB (2%)
    Title : Surround 5.1
    Language : Kazakh
    Service kind : Complete Main
    Default : No
    Forced : No
    Audio #3
    ID : 4
    Format : AC-3
    Format/Info : Audio Coding 3
    Format settings, Endianness : Big
    Codec ID : A_AC3
    Duration : 2 h 15 min
    Bit rate mode : Constant
    Bit rate : 640 kb/s
    Channel(s) : 6 channels
    Channel positions : Front: L C R, Side: L R, LFE
    Sampling rate : 48.0 kHz
    Frame rate : 31.250 FPS (1536 SPF)
    Bit depth : 16 bits
    Compression mode : Lossy
    Stream size : 622 MiB (2%)
    Title : Surround 5.1
    Language : Czech
    Service kind : Complete Main
    Default : No
    Forced : No
    Audio #4
    ID : 5
    Format : AC-3
    Format/Info : Audio Coding 3
    Format settings, Endianness : Big
    Codec ID : A_AC3
    Duration : 2 h 15 min
    Bit rate mode : Constant
    Bit rate : 640 kb/s
    Channel(s) : 6 channels
    Channel positions : Front: L C R, Side: L R, LFE
    Sampling rate : 48.0 kHz
    Frame rate : 31.250 FPS (1536 SPF)
    Bit depth : 16 bits
    Compression mode : Lossy
    Stream size : 622 MiB (2%)
    Title : Surround 5.1
    Language : Polish
    Service kind : Complete Main
    Default : No
    Forced : No
    Audio #5
    ID : 6
    Format : DTS
    Format/Info : Digital Theater Systems
    Mode : 16
    Format settings, Endianness : Big
    Codec ID : A_DTS
    Duration : 2 h 15 min
    Bit rate mode : Constant
    Bit rate : 1 509 kb/s
    Channel(s) : 6 channels
    Channel positions : Front: L C R, Side: L R, LFE
    Sampling rate : 48.0 kHz
    Frame rate : 93.750 FPS (512 SPF)
    Bit depth : 24 bits
    Compression mode : Lossy
    Stream size : 1.43 GiB (5%)
    Title : Surround 5.1
    Language : English
    Default : No
    Forced : No

    Скриншоты для ознакомления



    Все одноименные релизы в Клубе
    Время раздачи: с 18: 00 до 00: 00 (до появления первых 3-5 скачавших)


    Стражи Галактики. Часть 2/Guardians of the Galaxy Vol. 2 (2017) BDRemux [H.264/1080p] [IMAX Edition] [hand made 16:9]
    загрузка...
    Рейтинг →
     (голосов: 1, оценка 3/5, голосовать можно 1 раз )

    Другие торренты по теме:

  • Стражи Галактики / Guardians of the Galaxy (2014) CamRip
  • Стражи Галактики / Guardians of the Galaxy (2014) CamRip
  • Стражи Галактики / Guardians of the Galaxy (2014) Telecine [H.264 / 720p-LQ] [звук с TS] скачать через торрент бесплатно
  • Стражи Галактики / Guardians of the Galaxy (2014) Telecine [H.264 / 720p-LQ] [звук с TS] скачать через торрент бесплатно
  • Стражи Галактики / Guardians of the Galaxy (2014) Telecine [Звук с TS] скачать через торрент бесплатно
  • Стражи Галактики / Guardians of the Galaxy (2014) Telecine [Звук с TS] скачать через торрент бесплатно
  • Стражи Галактики / Guardians of the Galaxy (2014) Telecine [звук с TS] скачать через торрент бесплатно
  • Стражи Галактики / Guardians of the Galaxy (2014) Telecine [звук с TS] скачать через торрент бесплатно


    • Комментарии (0):

      Информация

      Информация

        Посетители, находящиеся в группе Гости, не могут оставлять комментарии в данной новости.

        ↓ Меню




        ↓ Опрос

        Вы добавили сайт в закладки?
        Да
        Нет


        Top 10 за месяц (Другое)