.
Авторизация | Регистрация
Хочешь лучшие торренты? Добавь свой email!
Добавить

Торрент скачать бесплатно

» » Люди Икс: Дни минувшего будущего / X-Men: Days of Future Past (2014) HDRip [H.264] [Hand Made Extended Roque Cut] торрент скачать бесплатно




    Люди Икс: Дни минувшего будущего / X-Men: Days of Future Past (2014) HDRip [H.264] [Hand Made Extended Roque Cut] торрент скачать бесплатно

    Опубликовал: Админ | Дата: 15-11-2017, 05:00 | Просмотров: 0

    Производство: США, Великобритания, Канада/20th Century Fox Film Corporation, Bad Hat Harry Productions, Donners\' Company, Down Productions, Ingenious Media, Marvel Entertainment, TSG Entertainment
    Жанр: Боевик, Приключения, Триллер, Фантастика
    Режиссер: Брайан Сингер

    Актеры
    Джош Хелман, Эван Питерс, Дэниэл Кадмор, Шон Эшмор, Бинбин Фань, Омар Си, Адан Канто, Анна Пэкуин, Бу Бу Стюарт, Хью Джекман

    Описание

    В недалёком будущем мутанты близки к истреблению роботами-охотниками на мутантов Стражами. Единственная надежда для мутантов выжить — предотвратить череду роковых событий, приведших к появлению Стражей. С помощью своих способностей, Китти Прайд перемещает сознание Росомахи в его молодое тело в 1973 год. В прошлом всё оказывается не так радужно: молодой Профессор Икс окончательно разочарован в своих идеях, Магнето содержится в тюрьме глубоко под землёй, а человечество не знает как реагировать на широкое появление мутантов.

    Возраст: 12+ (зрителям, достигшим 12 лет)
    Рейтинг MPAA: PG-13 (детям до 13 лет просмотр нежелателен)
    Релиз от: MAG3131
    Продолжительность: 02: 35: 12
    Качество видео: HDRip
    Перевод: Дублированный с вставками любительского псевдо-дубляжа \'\'Dars Group\'\'
    Субтитры: Отсутствуют
    Видео: AVC/H.264, 720x296, ~1065 kbps, 29, 970 fps
    Аудио: AC3, 2 ch, 192 kbps
    Данная версия фильма на Blu-Ray не выходила как расширенная версия. Поэтому это Неофициальная (фанатная) версия. Добавленные сцены отличаются по качеству видео от самого фильма.

    Общее
    Уникальный идентификатор : 197926168492002329896790320338400576125 (0x94E7318718B040CB9B50765D30C2027D)
    Полное имя : Люди Икс \'\'Дни минувшего будущего\'\' (Расширенная \'\'Роуг\'\' версия) (X-Men \'\'Days of Future Past\'\') (Extended \'\'Rogue\'\' Cut).mkv
    Формат : Matroska
    Версия формата : Version 2
    Размер файла : 1, 36 Гбайт
    Продолжительность : 2 ч. 35 м.
    Общий поток : 1259 Кбит/сек
    Дата кодирования : UTC 2017-11-14 20: 58: 51
    Программа кодирования : mkvmerge v17.0.0 (\'Be Ur Friend\') 64-bit
    Библиотека кодирования : libebml v1.3.5 + libmatroska v1.4.8
    Attachments : Лог кодирования.log
    Видео
    Идентификатор : 1
    Формат : AVC
    Формат/Информация : Advanced Video Codec
    Профиль формата : High@L4.1
    Настройки формата : CABAC/11 Ref Frames
    Параметр CABAC формата : Да
    Параметр RefFrames формата : 11 кадров
    Идентификатор кодека : V_MPEG4/ISO/AVC
    Продолжительность : 2 ч. 35 м.
    Битрейт : 1065 Кбит/сек
    Ширина : 720 пикселей
    Высота : 296 пикселей
    Соотношение сторон : 2, 40: 1
    Режим частоты кадров : Постоянный
    Частота кадров : 29, 970 (30000/1001) кадров/сек
    Цветовое пространство : YUV
    Субдискретизация насыщенности : 4: 2: 0
    Битовая глубина : 8 бит
    Тип развёртки : Прогрессивная
    Бит/(Пиксели*Кадры) : 0.167
    Размер потока : 1, 13 Гбайт (83%)
    Заголовок : Люди Икс \'\'Дни минувшего будущего\'\' (Расширенная \'\'Роуг\'\' версия) (X-Men \'\'Days of Future Past\'\') (Extended \'\'Rogue\'\' Cut)
    Библиотека кодирования : x264 core 148 r2744 b97ae06
    Настройки программы : cabac=1/ref=11/deblock=1: -1: -1/analyse=0x3: 0x133/me=umh/subme=11/psy=1/psy_rd=1.00: 0.15/mixed_ref=1/me_range=64/chroma_me=1/trellis=2/8x8dct=1/cqm=0/deadzone=21, 11/fast_pskip=0/chroma_qp_offset=-3/threads=6/lookahead_threads=1/sliced_threads=0/nr=0/decimate=0/interlaced=0/bluray_compat=0/constrained_intra=0/bframes=16/b_pyramid=2/b_adapt=2/b_bias=0/direct=3/weightb=1/open_gop=0/weightp=2/keyint=300/keyint_min=29/scenecut=40/intra_refresh=0/rc_lookahead=60/rc=2pass/mbtree=0/bitrate=1065/ratetol=1.0/qcomp=0.60/qpmin=0/qpmax=69/qpstep=4/cplxblur=20.0/qblur=0.5/vbv_maxrate=50000/vbv_bufsize=62500/nal_hrd=none/filler=0/ip_ratio=1.40/pb_ratio=1.30/aq=1: 1.00
    Язык : English
    Default : Да
    Forced : Нет
    Аудио
    Идентификатор : 2
    Формат : AC-3
    Формат/Информация : Audio Coding 3
    Идентификатор кодека : A_AC3
    Продолжительность : 2 ч. 35 м.
    Вид битрейта : Постоянный
    Битрейт : 192 Кбит/сек
    Каналы : 2 канала
    Расположение каналов : Front: L R
    Частота : 48, 0 КГц
    Частота кадров : 31, 250 кадров/сек (1536 SPF)
    Битовая глубина : 16 бит
    Метод сжатия : С потерями
    Размер потока : 213 Мбайт (15%)
    Заголовок : Дублированный \'\'iTunes\'\' с вставками любительского псевдо-дубляжа \'\'Dars Group\'\' (AC-3, Постоянный, 192 Кбит/сек, 2 канала, 48, 0 КГц, 16 бит)
    Язык : Russian
    ServiceKind/String : Complete Main
    Default : Да
    Forced : Нет

    Скриншоты для ознакомления



    Все одноименные релизы в Клубе
    Время раздачи: 24/7 до первых 10 скачавших, потом ухожу с раздачи


    Люди Икс: Дни минувшего будущего/X-Men: Days of Future Past (2014) HDRip [H.264] [Hand Made Extended Roque Cut]
    загрузка...
    Рейтинг →
     (голосов: 1, оценка 5/5, голосовать можно 1 раз )

    Другие торренты по теме:

  • Люди Икс: Дни минувшего будущего / X-Men: Days of Future Past (2014) WEB-DL [720p]
  • Люди Икс: Дни минувшего будущего / X-Men: Days of Future Past (2014) DVD9
  • Люди Икс: Дни минувшего будущего / X-Men: Days of Future Past (2014) DVDRip [H264] скачать через торрент бесплатно
  • Люди Икс: Дни минувшего будущего / X-Men: Days of Future Past (2014) DVDRip [H.264] скачать через торрент бесплатно
  • Люди Икс: Дни минувшего будущего / X-Men: Days of Future Past (2014) DVD5 скачать через торрент бесплатно
  • Люди Икс: Дни минувшего будущего / X-Men: Days of Future Past (2014) HDRip скачать через торрент бесплатно
  • Люди Икс: Дни минувшего будущего / X-Men: Days of Future Past (2014) BDRemux [1080p] скачать через торрент бесплатно
  • Люди Икс: Дни минувшего будущего / X-Men: Days of Future Past (2014) BDRemux 3D [1080p] [3D / 2D] скачать через торрент бесплатно


    • Комментарии (0):

      Информация

      Информация

        Посетители, находящиеся в группе Гости, не могут оставлять комментарии в данной новости.

        ↓ Меню




        ↓ Опрос

        Вы добавили сайт в закладки?
        Да
        Нет


        Top 10 за месяц (Другое)