.
Авторизация | Регистрация
Хочешь лучшие торренты? Добавь свой email!
Добавить

Торрент скачать бесплатно

» » Виски рекой / Whisky Galore (2016) BDRip [H.264 / 720p] [MVO] [AD] торрент скачать бесплатно




    Виски рекой / Whisky Galore (2016) BDRip [H.264 / 720p] [MVO] [AD] торрент скачать бесплатно

    Опубликовал: Админ | Дата: 13-11-2017, 05:00 | Просмотров: 0

    Производство: Великобритания
    Жанр: Мелодрама, Комедия
    Режиссер: Гиллис МакКиннон

    Актеры
    Джеймс Космо, Элли Кендрик, Тим Пиготт-Смит, Фенелла Вулгар, Эдди Иззард, Кевин Гатри, Шон Биггерстаф, Наоми Баттрик, Майкл Нардон, Грегор Фишер

    Описание

    Вторая мировая война. На шотландском острове Тоддей закончилась квота на виски. Страдая от засухи, островитяне стараются не перегрызть себе глотки. Однажды у берегов их острова терпит крушение корабль, битком набитый ящиками с виски…

    Релиз от: KOSHARA
    Продолжительность: 01: 39: 34
    Качество видео: HDRip
    Перевод: Многоголосый закадровый (Синема УС)
    Субтитры: отсутствуют
    Реклама: присутствует голосовая, текстовая и видео реклама
    Видео: AVC/H.264, 1280x688, ~5370 Kbps
    Аудио: AC3, 2 ch, 448 Kbps

    Complete name : X: ВИСКИ РЕКОЙwhisky.galore.2016.P.BDRip.72Op_KOSHARA.mkv
    Format : Matroska
    Format version : Version 2
    File size : 4.05 GiB
    Duration : 1h 39mn
    Overall bit rate mode : Variable
    Overall bit rate : 5 820 Kbps
    Encoded date : UTC 2017-11-10 04: 08: 37
    Writing application : mkvmerge v8.3.0 (\'Over the Horizon\') 64bit
    Writing library : libebml v1.3.1 + libmatroska v1.4.2
    DURATION : 01: 39: 34.560000000
    NUMBER_OF_FRAMES : 186705
    NUMBER_OF_BYTES : 334575360
    _STATISTICS_WRITING_APP : mkvmerge v8.3.0 (\'Over the Horizon\') 64bit
    _STATISTICS_WRITING_DATE_UTC : 2017-11-10 04: 08: 37
    _STATISTICS_TAGS : BPS DURATION NUMBER_OF_FRAMES NUMBER_OF_BYTES
    Video
    ID : 1
    Format : AVC
    Format/Info : Advanced Video Codec
    Format profile : High@L4.1
    Format settings, CABAC : Yes
    Format settings, ReFrames : 9 frames
    Codec ID : V_MPEG4/ISO/AVC
    Duration : 1h 39mn
    Bit rate mode : Variable
    Bit rate : 5 256 Kbps
    Maximum bit rate : 6 000 Kbps
    Width : 1 280 pixels
    Height : 688 pixels
    Display aspect ratio : 1.85: 1
    Frame rate mode : Constant
    Frame rate : 23.976 fps
    Standard : Component
    Color space : YUV
    Chroma subsampling : 4: 2: 0
    Bit depth : 8 bits
    Scan type : Progressive
    Bits/(Pixel*Frame) : 0.249
    Stream size : 3.66 GiB (90%)
    Default : Yes
    Forced : No
    Color primaries : BT.709
    Transfer characteristics : BT.709
    Matrix coefficients : BT.709
    Audio
    ID : 2
    Format : AC-3
    Format/Info : Audio Coding 3
    Mode extension : CM (complete main)
    Format settings, Endianness : Big
    Codec ID : A_AC3
    Duration : 1h 39mn
    Bit rate mode : Constant
    Bit rate : 448 Kbps
    Channel count : 2 channels
    Channel positions : Front: L R
    Sampling rate : 48.0 KHz
    Bit depth : 16 bits
    Compression mode : Lossy
    Stream size : 319 MiB (8%)
    Default : Yes
    Forced : No
    Виски – источник жизни
    Ремейк классического одноимённого фильма 1949 года. Это и безобидная комедия, и причудливая драма, и романтика. Отличный повод приятно приятно провести время.

    Скриншоты для ознакомления



    Все одноименные релизы в Клубе
    Время раздачи: 24/7 (круглосуточно) (до появления первых 3-5 скачавших)


    Виски рекой/Whisky Galore (2016) BDRip [H.264/720p] [MVO] [AD]
    загрузка...
    Рейтинг →
     (голосов: 1, оценка 5/5, голосовать можно 1 раз )

    Другие торренты по теме:

  • Виски. Версия Айлы / Whisky: The Islay Edition (2011) BDRemux [H.264 / 1080p] скачать через торрент бесплатно
  • Игорь Мальцев | Путешествие виски. Легенды Шотландии (2013) [PDF] скачать через торрент бесплатно
  • Осторожно, мошенники! Виски из канистры (2016.06.28) SATRip
  • Сэм Виски / Sam Whiskey (1969) DVDRip [H.264]
  • Би-2 feat. John Grant - Виски (2017) Single [MP3|320 Kbps] <Rock>


    • Комментарии (0):

      Информация

      Информация

        Посетители, находящиеся в группе Гости, не могут оставлять комментарии в данной новости.

        ↓ Меню




        ↓ Опрос

        Вы добавили сайт в закладки?
        Да
        Нет


        Top 10 за месяц (Другое)