.
Авторизация | Регистрация
Хочешь лучшие торренты? Добавь свой email!
Добавить

Торрент скачать бесплатно

» » Брат Дэян (2015) WEB-DLRip [MVO] [AD] торрент скачать бесплатно




    Брат Дэян (2015) WEB-DLRip [MVO] [AD] торрент скачать бесплатно

    Опубликовал: Админ | Дата: 11-11-2017, 05:00 | Просмотров: 0

    Производство: Россия, Сербия/Vita Aktiva
    Жанр: Драма
    Режиссер: Бакур Бакурадзе

    Актеры
    Марко Николич, Михаил Тиринда

    Описание

    Фильм о последнем годе жизни перед арестом и сдачей Гаагскому трибуналу одного из генералов Балканской войны.
    Более десяти лет бывший генерал Дэян Станич вынужден был скрываться от трибунала на закрытых базах. По состоянию здоровья соратники перевозят его в глухую деревню высоко в горах. Шаг за шагом выстраиваются отношения одинокого старика с новой реальностью и с новым окружением. Генерал часто видит во сне и в бреду сцены войны: бомбежки, беженцы, убитые дети. Он постоянно обдумывает свою прошлую жизнь без всякой надежды что-то изменить и исправить. Он все время находится на волосок от смерти, но зачем-то судьба заставляет его жить.

    Возраст: 16+ (зрителям, достигшим 16 лет)
    Релиз от: KOSHARA
    Продолжительность: 01: 55: 43
    Качество видео: WEB-DLRip
    Перевод: Многоголосый закадровый (Синема УС)
    Субтитры: отсутствуют
    Реклама: присутствуют аудио и видео вставки рекламы
    Видео: Xvid, 720x336, ~1599 Kbps
    Аудио: AC3, 2 ch, 192 Kbps

    General
    Complete name : /media/win/TORRENT/UPLOAD TORRENTS/Brat.Deyan.2015.P.WEB-DLRip.avi
    Format : AVI
    Format/Info : Audio Video Interleave
    File size : 1.46 GiB
    Duration : 1 h 55 min
    Overall bit rate : 1 802 kb/s
    Writing application : VirtualDubMod 1.5.10.2 (build 2540/release)
    Writing library : VirtualDubMod build 2540/release
    Video
    ID : 0
    Format : MPEG-4 Visual
    Format profile : Advanced Simple@L5
    Format settings : BVOP2
    Format settings, BVOP : 2
    Format settings, QPel : No
    Format settings, GMC : No warppoints
    Format settings, Matrix : Default (MPEG)
    Codec ID : XVID
    Codec ID/Hint : XviD
    Duration : 1 h 55 min
    Bit rate : 1 601 kb/s
    Width : 720 pixels
    Height : 336 pixels
    Display aspect ratio : 2.143
    Frame rate : 23.976 (24000/1001) FPS
    Color space : YUV
    Chroma subsampling : 4: 2: 0
    Bit depth : 8 bits
    Scan type : Progressive
    Compression mode : Lossy
    Bits/(Pixel*Frame) : 0.276
    Stream size : 1.29 GiB (89%)
    Writing library : XviD 1.2.1 (UTC 2008-12-04)
    Audio
    ID : 1
    Format : AC-3
    Format/Info : Audio Coding 3
    Codec ID : 2000
    Duration : 1 h 55 min
    Bit rate mode : Constant
    Bit rate : 192 kb/s
    Channel(s) : 2 channels
    Channel positions : Front: L R
    Sampling rate : 48.0 kHz
    Frame rate : 31.250 FPS (1536 SPF)
    Bit depth : 16 bits
    Compression mode : Lossy
    Stream size : 159 MiB (11%)
    Alignment : Split accross interleaves
    Interleave, duration : 42 ms (1.00 video frame)
    Interleave, preload duration : 500 ms
    Service kind : Complete Main

    Скриншоты для ознакомления



    Все одноименные релизы в Клубе
    Время раздачи: c 09: 00 до 22: 00 до пяти скачавших (до появления первых 3-5 скачавших)


    Брат Дэян (2015) WEB-DLRip [MVO] [AD]
    загрузка...
    Рейтинг →
     (голосов: 1, оценка 5/5, голосовать можно 1 раз )

    Другие торренты по теме:

  • Брат и Брат 2 :Дилогия (1997,2000) WEB-DL [H.264 / 1080p-LQ]
  • Александра Анненская | Брат и сестра. Младший брат (2014) [MP3]
  • Брат / Брат 2: Дилогия (1997 / 2000) WEB-DLRip [H.264] [MP4|1024x576]
  • Трубка Сталина: ход старого шамана (Брат-2) (2014) WEB-DLRip скачать через торрент бесплатно
  • Мой брат - идиот / Our Idiot Brother (2011) HDTV [1080i]
  • Брат якудзы / Brother (2000) BDRip [H.264]
  • Onii-chan Dakedo Ai Sae Areba Kankei Nai yo ne / OniAi / Пусть он и мой брат, но это не имеет значения, если мы любим друг друга [2012,TV,12 ep] BDRip Hi10p 720p Raw+Rus скачать через торрент бесплатно
  • Олен Безъязыков - Брат (2010) [FLAC|image+.cue ]<Шансон> скачать через торрент бесплатно


    • Комментарии (0):

      Информация

      Информация

        Посетители, находящиеся в группе Гости, не могут оставлять комментарии в данной новости.

        ↓ Меню




        ↓ Опрос

        Вы добавили сайт в закладки?
        Да
        Нет


        Top 10 за месяц (Другое)